找回密碼

藍光電影網

查看: 883|回復: 26
打印 上一主題 下一主題

[8bit.SDR] 潘神的迷宮 Pans.Labyrinth.2006.SPANISH.2160p.BluRay.x264.8bit.SDR.DTS-HD.MA.7.1-SWTYBLZ 33.10GB

[復制鏈接]

 成長值: 1795

跳轉到指定樓層
1#
發表于 2019-10-4 00:03:40 | 只看該作者 |只看大圖 回帖獎勵 |倒序瀏覽 |閱讀模式


譯  名 潘神的迷宮 / Pan's Labyrinth / 奇幻迷宮 / 潘的迷宮 / 羊男的迷宮 / 魔間迷宮
片  名 El laberinto del fauno
年  代 2006
產  地 西班牙 / 墨西哥 / 美國
類  別 劇情 / 懸疑 / 戰爭 / 奇幻
語  言 西班牙語
上映日期 2006-10-11(西班牙)
IMDb評分  8.2/10 from 580358 users
IMDb鏈接  http://www.imdb.com/title/tt0457430
豆瓣評分 7.8/10 from 157304 users
豆瓣鏈接 https://movie.douban.com/subject/1767042/
片  長 118分鐘(英國)
導  演 吉爾莫·德爾·托羅 Guillermo del Toro
編  劇 吉爾莫·德爾·托羅 Guillermo del Toro
主  演 伊萬娜·巴克羅 Ivana Baquero
       塞吉·洛佩茲 Sergi López
       瑪麗貝爾· 瓦度 Maribel Verdú
       道格·瓊斯 Doug Jones
       艾妮安娜·姬兒 Ariadna Gil


標  簽 魔幻 | 西班牙 | 奇幻 | 童話 | 潘神的迷宮 | 戰爭 | 2006 | 電影

簡  介  

  12歲女孩子奧菲麗婭(伊萬娜?巴克爾洛 飾)有一個兇暴的法西斯軍官繼父維達(塞吉?洛佩茲 飾),維達的任務就是鎮壓反抗者,研究各種刑具來折磨殘害被抓來的異見人士,奧菲麗婭每天都目睹讓人不愉快的事件。眼看著冷酷的繼父和其黨羽每日作惡還以此為樂,母親又身懷六甲患病在床,被孤獨感和目睹暴行的痛苦困擾的奧菲麗婭開始沉浸在自己的幻想中聊以自慰。
  一天,奧菲麗婭遇到了迷宮的守護者,潘神(道格?瓊斯 飾)。潘神告訴她,她其實是奇幻王國失蹤的公主,要想恢復身份,必須通過三個危險的考驗。

獲獎情況  

  第79屆奧斯卡金像獎(2007)
  最佳原創劇本(提名) 吉爾莫·德爾·托羅
  最佳外語片(提名) 吉爾莫·德爾·托羅
  最佳攝影 吉列爾莫·納瓦羅
  最佳藝術指導 尤吉尼奧·卡巴萊羅 / Pilar Revuelta
  最佳化妝 David Martí / Montse Ribé
  最佳原創配樂(提名) 哈維爾·納瓦雷特

  第59屆戛納電影節(2006)
  主競賽單元 金棕櫚獎(提名) 吉爾莫·德爾·托羅

  第64屆金球獎(2007)
  電影類 最佳外語片(提名)
  1. Video
  2. ID                                       : 1
  3. Format                                   : AVC
  4. Format/Info                              : Advanced Video Codec
  5. Format profile                           : [email protected]
  6. Format settings                          : CABAC / 5 Ref Frames
  7. Format settings, CABAC                   : Yes
  8. Format settings, Reference frames        : 5 frames
  9. Codec ID                                 : V_MPEG4/ISO/AVC
  10. Duration                                 : 1 h 59 min
  11. Bit rate                                 : 33.8 Mb/s
  12. Width                                    : 3 840 pixels
  13. Height                                   : 2 076 pixels
  14. Display aspect ratio                     : 1.85:1
  15. Frame rate mode                          : Constant
  16. Frame rate                               : 23.976 (24000/1001) FPS
  17. Color space                              : YUV
  18. Chroma subsampling                       : 4:2:0
  19. Bit depth                                : 8 bits
  20. Scan type                                : Progressive
  21. Bits/(Pixel*Frame)                       : 0.177
  22. Stream size                              : 28.2 GiB (85%)
  23. Title                                    : Pans.Labyrinth.2006.SPANISH.2160p.BluRay.x264.8bit.SDR.DTS-HD.MA.7.1-SWTYBLZ
  24. Writing library                          : x264 core 157 r2935 545de2f
  25. Encoding settings                        : cabac=1 / ref=5 / deblock=1:-1:-1 / analyse=0x3:0x113 / me=umh / subme=10 / psy=1 / psy_rd=1.00:0.15 / mixed_ref=1 / me_range=48 / chroma_me=1 / trellis=2 / 8x8dct=1 / cqm=0 / deadzone=21,11 / fast_pskip=1 / chroma_qp_offset=-3 / threads=48 / lookahead_threads=4 / sliced_threads=0 / nr=0 / decimate=0 / interlaced=0 / bluray_compat=0 / constrained_intra=0 / bframes=3 / b_pyramid=2 / b_adapt=2 / b_bias=0 / direct=3 / weightb=1 / open_gop=0 / weightp=2 / keyint=250 / keyint_min=23 / scenecut=40 / intra_refresh=0 / rc_lookahead=50 / rc=crf / mbtree=1 / crf=18.0 / qcomp=0.60 / qpmin=0 / qpmax=69 / qpstep=4 / ip_ratio=1.40 / aq=1:1.00
  26. Language                                 : Spanish
  27. Default                                  : Yes
  28. Forced                                   : No

  29. Audio #1
  30. ID                                       : 2
  31. Format                                   : DTS XLL
  32. Format/Info                              : Digital Theater Systems
  33. Commercial name                          : DTS-HD Master Audio
  34. Codec ID                                 : A_DTS
  35. Duration                                 : 1 h 59 min
  36. Bit rate mode                            : Variable
  37. Bit rate                                 : 5 175 kb/s
  38. Channel(s)                               : 8 channels
  39. Channel layout                           : C L R LFE Lb Rb Lss Rss
  40. Sampling rate                            : 48.0 kHz
  41. Frame rate                               : 93.750 FPS (512 SPF)
  42. Bit depth                                : 24 bits
  43. Compression mode                         : Lossless
  44. Stream size                              : 4.31 GiB (13%)
  45. Title                                    : Pans.Labyrinth.2006.SPANISH.2160p.BluRay.x264.8bit.SDR.DTS-HD.MA.7.1-SWTYBLZ
  46. Language                                 : Spanish
  47. Default                                  : Yes
  48. Forced                                   : No

  49. Audio #2
  50. ID                                       : 3
  51. Format                                   : AC-3
  52. Format/Info                              : Audio Coding 3
  53. Commercial name                          : Dolby Digital
  54. Codec ID                                 : A_AC3
  55. Duration                                 : 1 h 59 min
  56. Bit rate mode                            : Constant
  57. Bit rate                                 : 640 kb/s
  58. Channel(s)                               : 6 channels
  59. Channel layout                           : L R C LFE Ls Rs
  60. Sampling rate                            : 48.0 kHz
  61. Frame rate                               : 31.250 FPS (1536 SPF)
  62. Bit depth                                : 16 bits
  63. Compression mode                         : Lossy
  64. Stream size                              : 546 MiB (2%)
  65. Title                                    : Pans.Labyrinth.2006.SPANISH.2160p.BluRay.x264.8bit.SDR.DTS-HD.MA.7.1-SWTYBLZ
  66. Language                                 : Spanish
  67. Service kind                             : Complete Main
  68. Default                                  : No
  69. Forced                                   : No

  70. Text #1
  71. ID                                       : 4
  72. Format                                   : UTF-8
  73. Codec ID                                 : S_TEXT/UTF8
  74. Codec ID/Info                            : UTF-8 Plain Text
  75. Duration                                 : 1 h 51 min
  76. Bit rate                                 : 28 b/s
  77. Count of elements                        : 886
  78. Stream size                              : 23.2 KiB (0%)
  79. Title                                    : English-SRT
  80. Language                                 : English
  81. Default                                  : Yes
  82. Forced                                   : No

  83. Text #2
  84. ID                                       : 5
  85. Format                                   : PGS
  86. Muxing mode                              : zlib
  87. Codec ID                                 : S_HDMV/PGS
  88. Codec ID/Info                            : Picture based subtitle format used on BDs/HD-DVDs
  89. Duration                                 : 1 h 51 min
  90. Bit rate                                 : 15.8 kb/s
  91. Count of elements                        : 1774
  92. Stream size                              : 12.6 MiB (0%)
  93. Title                                    : English-PGS
  94. Language                                 : English
  95. Default                                  : No
  96. Forced                                   : No

  97. Text #3
  98. ID                                       : 6
  99. Format                                   : PGS
  100. Muxing mode                              : zlib
  101. Codec ID                                 : S_HDMV/PGS
  102. Codec ID/Info                            : Picture based subtitle format used on BDs/HD-DVDs
  103. Duration                                 : 1 h 57 min
  104. Bit rate                                 : 16.6 kb/s
  105. Count of elements                        : 1768
  106. Stream size                              : 13.9 MiB (0%)
  107. Title                                    : Spanish-PGS
  108. Language                                 : Spanish
  109. Default                                  : No
  110. Forced                                   : No

  111. Menu
  112. 00:00:00.000                             : en:Chapter 01
  113. 00:05:51.476                             : en:Chapter 02
  114. 00:11:30.398                             : en:Chapter 03
  115. 00:14:52.808                             : en:Chapter 04
  116. 00:18:10.214                             : en:Chapter 05
  117. 00:24:52.449                             : en:Chapter 06
  118. 00:31:12.996                             : en:Chapter 07
  119. 00:38:34.061                             : en:Chapter 08
  120. 00:42:56.949                             : en:Chapter 09
  121. 00:46:17.399                             : en:Chapter 10
  122. 00:48:16.810                             : en:Chapter 11
  123. 00:55:38.626                             : en:Chapter 12
  124. 01:02:36.419                             : en:Chapter 13
  125. 01:07:57.656                             : en:Chapter 14
  126. 01:12:54.661                             : en:Chapter 15
  127. 01:16:45.017                             : en:Chapter 16
  128. 01:21:44.190                             : en:Chapter 17
  129. 01:25:12.398                             : en:Chapter 18
  130. 01:31:28.566                             : en:Chapter 19
  131. 01:36:28.240                             : en:Chapter 20
  132. 01:43:04.636                             : en:Chapter 21
  133. 01:52:19.733                             : en:Chapter 22
復制代碼









分享到:  QQ好友和群QQ好友和群
收藏收藏1
開通VIP免費下載本站所有資源---點這里
新手必看:資源下載常見問題---點這里
回復

使用道具 舉報

2#
發表于 2019-10-4 07:21:59 | 只看該作者
經典電影,感謝分享
開通VIP免費下載本站所有資源---點這里
新手必看:資源下載常見問題---點這里
回復 支持 反對

使用道具 舉報

3#
發表于 2019-10-4 14:22:54 | 只看該作者
謝謝收藏了
開通VIP免費下載本站所有資源---點這里
新手必看:資源下載常見問題---點這里
回復 支持 反對

使用道具 舉報

4#
發表于 2019-10-4 15:15:33 | 只看該作者

QQ7711-41361 銷 售 學-=生-=妹  良=-家,性=-息  服=-務-=給=-力,安=全-可=靠



QQ7711-41361 銷 售 學-=生-=妹  良=-家,性=-息  服=-務-=給=-力,安=全-可=靠



QQ7711-41361 銷 售 學-=生-=妹  良=-家,性=-息  服=-務-=給=-力,安=全-可=靠



QQ7711-41361 銷 售 學-=生-=妹  良=-家,性=-息  服=-務-=給=-力,安=全-可=靠


開通VIP免費下載本站所有資源---點這里
新手必看:資源下載常見問題---點這里
回復 支持 反對

使用道具 舉報

5#
發表于 2019-10-4 22:22:43 | 只看該作者
這部電影挺好看!感謝熱心分享!!!!
開通VIP免費下載本站所有資源---點這里
新手必看:資源下載常見問題---點這里
回復 支持 反對

使用道具 舉報

6#
發表于 2019-10-5 02:55:20 | 只看該作者
樓主發貼辛苦了,謝謝樓主分享!我覺得藍光電影網是注冊對了!
開通VIP免費下載本站所有資源---點這里
新手必看:資源下載常見問題---點這里
回復 支持 反對

使用道具 舉報

7#
發表于 2019-10-5 04:14:37 | 只看該作者
1111111111111111111111
開通VIP免費下載本站所有資源---點這里
新手必看:資源下載常見問題---點這里
回復 支持 反對

使用道具 舉報

8#
發表于 2019-10-5 07:09:31 | 只看該作者
謝謝分享!!!!!
開通VIP免費下載本站所有資源---點這里
新手必看:資源下載常見問題---點這里
回復

使用道具 舉報

9#
發表于 2019-10-5 08:24:27 | 只看該作者
樓主發貼辛苦了,謝謝樓主分享!我覺得藍光電影網是注冊對了!
開通VIP免費下載本站所有資源---點這里
新手必看:資源下載常見問題---點這里
回復 支持 反對

使用道具 舉報

10#
發表于 2019-10-5 08:59:07 | 只看該作者

QQ 7711-41361銷--售  桑=拿=女  站=街=女。。學=妹。。少=婦。。。外=圍=資=料




QQ 7711-41361銷--售  桑=拿=女  站=街=女。。學=妹。。少=婦。。。外=圍=資=料




QQ 7711-41361銷--售  桑=拿=女  站=街=女。。學=妹。。少=婦。。。外=圍=資=料




QQ 7711-41361銷--售  桑=拿=女  站=街=女。。學=妹。。少=婦。。。外=圍=資=料



開通VIP免費下載本站所有資源---點這里
新手必看:資源下載常見問題---點這里
回復 支持 反對

使用道具 舉報

懶得打字嘛,點擊右側快捷回復 【右側內容,后臺自定義】
您需要登錄后才可以回帖 登錄 | 立即加入

本版積分規則

現在加入藍光電影網,注冊一個賬號

QQ| 手機版|小黑屋| 藍光電影網 |網站地圖

Copyright © 2015-2019 Comsenz Inc.  Template by 藍光電影論壇 All Rights Reserved.

Powered by 藍光電影網 X3.4

特別聲明:本站所有資源均由網上收集而來,版權歸原影音公司所有,如果侵犯了你的權益,請通知我們,我們會及時刪除侵權內容.

快速回復 返回頂部 返回列表
北京pk10历史开奖直播