找回密碼

藍光電影網

查看: 296|回復: 9
打印 上一主題 下一主題

[REMUX.HEVC] 潘神的迷宮 Pans.Labyrinth.2006.SPANISH.2160p.BluRay.REMUX.HEVC.DTS-HD.MA.7.1-FGT 53.65GB

[復制鏈接]

 成長值: 1795

跳轉到指定樓層
1#
發表于 2019-10-3 23:55:19 | 只看該作者 |只看大圖 回帖獎勵 |倒序瀏覽 |閱讀模式


譯  名 潘神的迷宮 / Pan's Labyrinth / 奇幻迷宮 / 潘的迷宮 / 羊男的迷宮 / 魔間迷宮
片  名 El laberinto del fauno
年  代 2006
產  地 西班牙 / 墨西哥 / 美國
類  別 劇情 / 懸疑 / 戰爭 / 奇幻
語  言 西班牙語
上映日期 2006-10-11(西班牙)
IMDb評分  8.2/10 from 580358 users
IMDb鏈接  http://www.imdb.com/title/tt0457430
豆瓣評分 7.8/10 from 157304 users
豆瓣鏈接 https://movie.douban.com/subject/1767042/
片  長 118分鐘(英國)
導  演 吉爾莫·德爾·托羅 Guillermo del Toro
編  劇 吉爾莫·德爾·托羅 Guillermo del Toro
主  演 伊萬娜·巴克羅 Ivana Baquero
       塞吉·洛佩茲 Sergi López
       瑪麗貝爾· 瓦度 Maribel Verdú
       道格·瓊斯 Doug Jones
       艾妮安娜·姬兒 Ariadna Gil


標  簽 魔幻 | 西班牙 | 奇幻 | 童話 | 潘神的迷宮 | 戰爭 | 2006 | 電影

簡  介  

  12歲女孩子奧菲麗婭(伊萬娜?巴克爾洛 飾)有一個兇暴的法西斯軍官繼父維達(塞吉?洛佩茲 飾),維達的任務就是鎮壓反抗者,研究各種刑具來折磨殘害被抓來的異見人士,奧菲麗婭每天都目睹讓人不愉快的事件。眼看著冷酷的繼父和其黨羽每日作惡還以此為樂,母親又身懷六甲患病在床,被孤獨感和目睹暴行的痛苦困擾的奧菲麗婭開始沉浸在自己的幻想中聊以自慰。
  一天,奧菲麗婭遇到了迷宮的守護者,潘神(道格?瓊斯 飾)。潘神告訴她,她其實是奇幻王國失蹤的公主,要想恢復身份,必須通過三個危險的考驗。

獲獎情況  

  第79屆奧斯卡金像獎(2007)
  最佳原創劇本(提名) 吉爾莫·德爾·托羅
  最佳外語片(提名) 吉爾莫·德爾·托羅
  最佳攝影 吉列爾莫·納瓦羅
  最佳藝術指導 尤吉尼奧·卡巴萊羅 / Pilar Revuelta
  最佳化妝 David Martí / Montse Ribé
  最佳原創配樂(提名) 哈維爾·納瓦雷特

  第59屆戛納電影節(2006)
  主競賽單元 金棕櫚獎(提名) 吉爾莫·德爾·托羅

  第64屆金球獎(2007)
  電影類 最佳外語片(提名)
  1. Video
  2. ID                                       : 1
  3. Format                                   : HEVC
  4. Format/Info                              : High Efficiency Video Coding
  5. Format profile                           : Main [email protected]@High
  6. HDR format                               : SMPTE ST 2086, HDR10 compatible
  7. Codec ID                                 : V_MPEGH/ISO/HEVC
  8. Duration                                 : 1 h 59 min
  9. Bit rate                                 : 55.6 Mb/s
  10. Width                                    : 3 840 pixels
  11. Height                                   : 2 160 pixels
  12. Display aspect ratio                     : 16:9
  13. Frame rate mode                          : Constant
  14. Frame rate                               : 23.976 (24000/1001) FPS
  15. Color space                              : YUV
  16. Chroma subsampling                       : 4:2:0 (Type 2)
  17. Bit depth                                : 10 bits
  18. Bits/(Pixel*Frame)                       : 0.279
  19. Stream size                              : 46.3 GiB (86%)
  20. Title                                    : Pans.Labyrinth.2006.SPANISH.2160p.BluRay.REMUX.HEVC.DTS-HD.MA.7.1-FGT
  21. Writing library                          : ATEME Titan File 3.9.0 (4.9.0.0)        
  22. Language                                 : English
  23. Default                                  : No
  24. Forced                                   : No
  25. Color range                              : Limited
  26. Color primaries                          : BT.2020
  27. Transfer characteristics                 : PQ
  28. Matrix coefficients                      : BT.2020 non-constant
  29. Mastering display color primaries        : Display P3
  30. Mastering display luminance              : min: 0.0050 cd/m2, max: 4000 cd/m2
  31. Maximum Content Light Level              : 761 cd/m2
  32. Maximum Frame-Average Light Level        : 46 cd/m2

  33. Audio #1
  34. ID                                       : 2
  35. Format                                   : DTS XLL
  36. Format/Info                              : Digital Theater Systems
  37. Commercial name                          : DTS-HD Master Audio
  38. Codec ID                                 : A_DTS
  39. Duration                                 : 1 h 59 min
  40. Bit rate mode                            : Variable
  41. Bit rate                                 : 5 175 kb/s
  42. Channel(s)                               : 8 channels
  43. Channel layout                           : C L R LFE Lb Rb Lss Rss
  44. Sampling rate                            : 48.0 kHz
  45. Frame rate                               : 93.750 FPS (512 SPF)
  46. Bit depth                                : 24 bits
  47. Compression mode                         : Lossless
  48. Stream size                              : 4.31 GiB (8%)
  49. Title                                    : Pans.Labyrinth.2006.SPANISH.2160p.BluRay.REMUX.HEVC.DTS-HD.MA.7.1-FGT
  50. Language                                 : Spanish
  51. Default                                  : Yes
  52. Forced                                   : No

  53. Audio #2
  54. ID                                       : 3
  55. Format                                   : DTS XLL
  56. Format/Info                              : Digital Theater Systems
  57. Commercial name                          : DTS-HD Master Audio
  58. Codec ID                                 : A_DTS
  59. Duration                                 : 1 h 59 min
  60. Bit rate mode                            : Variable
  61. Bit rate                                 : 3 505 kb/s
  62. Channel(s)                               : 6 channels
  63. Channel layout                           : C L R Ls Rs LFE
  64. Sampling rate                            : 48.0 kHz
  65. Frame rate                               : 93.750 FPS (512 SPF)
  66. Bit depth                                : 24 bits
  67. Compression mode                         : Lossless
  68. Stream size                              : 2.92 GiB (5%)
  69. Title                                    : Pans.Labyrinth.2006.SPANISH.2160p.BluRay.REMUX.HEVC.DTS-HD.MA.7.1-FGT
  70. Language                                 : Spanish
  71. Default                                  : No
  72. Forced                                   : No

  73. Audio #3
  74. ID                                       : 4
  75. Format                                   : AC-3
  76. Format/Info                              : Audio Coding 3
  77. Commercial name                          : Dolby Digital
  78. Codec ID                                 : A_AC3
  79. Duration                                 : 1 h 59 min
  80. Bit rate mode                            : Constant
  81. Bit rate                                 : 192 kb/s
  82. Channel(s)                               : 2 channels
  83. Channel layout                           : L R
  84. Sampling rate                            : 48.0 kHz
  85. Frame rate                               : 31.250 FPS (1536 SPF)
  86. Bit depth                                : 16 bits
  87. Compression mode                         : Lossy
  88. Stream size                              : 164 MiB (0%)
  89. Title                                    : Pans.Labyrinth.2006.SPANISH.2160p.BluRay.REMUX.HEVC.DTS-HD.MA.7.1-FGT
  90. Language                                 : English
  91. Service kind                             : Complete Main
  92. Default                                  : No
  93. Forced                                   : No

  94. Text #1
  95. ID                                       : 5
  96. Format                                   : UTF-8
  97. Codec ID                                 : S_TEXT/UTF8
  98. Codec ID/Info                            : UTF-8 Plain Text
  99. Duration                                 : 1 h 51 min
  100. Bit rate                                 : 28 b/s
  101. Count of elements                        : 886
  102. Stream size                              : 23.2 KiB (0%)
  103. Title                                    : English-SRT
  104. Language                                 : English
  105. Default                                  : Yes
  106. Forced                                   : No

  107. Text #2
  108. ID                                       : 6
  109. Format                                   : PGS
  110. Muxing mode                              : zlib
  111. Codec ID                                 : S_HDMV/PGS
  112. Codec ID/Info                            : Picture based subtitle format used on BDs/HD-DVDs
  113. Duration                                 : 1 h 51 min
  114. Bit rate                                 : 15.8 kb/s
  115. Count of elements                        : 1774
  116. Stream size                              : 12.6 MiB (0%)
  117. Title                                    : English-PGS
  118. Language                                 : English
  119. Default                                  : No
  120. Forced                                   : No

  121. Text #3
  122. ID                                       : 7
  123. Format                                   : PGS
  124. Muxing mode                              : zlib
  125. Codec ID                                 : S_HDMV/PGS
  126. Codec ID/Info                            : Picture based subtitle format used on BDs/HD-DVDs
  127. Duration                                 : 1 h 57 min
  128. Bit rate                                 : 16.6 kb/s
  129. Count of elements                        : 1768
  130. Stream size                              : 13.9 MiB (0%)
  131. Title                                    : Spanish-PGS
  132. Language                                 : Spanish
  133. Default                                  : No
  134. Forced                                   : No

  135. Menu
  136. 00:00:00.000                             : en:Chapter 01
  137. 00:05:51.476                             : en:Chapter 02
  138. 00:11:30.398                             : en:Chapter 03
  139. 00:14:52.808                             : en:Chapter 04
  140. 00:18:10.214                             : en:Chapter 05
  141. 00:24:52.449                             : en:Chapter 06
  142. 00:31:12.996                             : en:Chapter 07
  143. 00:38:34.061                             : en:Chapter 08
  144. 00:42:56.949                             : en:Chapter 09
  145. 00:46:17.399                             : en:Chapter 10
  146. 00:48:16.810                             : en:Chapter 11
  147. 00:55:38.626                             : en:Chapter 12
  148. 01:02:36.419                             : en:Chapter 13
  149. 01:07:57.656                             : en:Chapter 14
  150. 01:12:54.661                             : en:Chapter 15
  151. 01:16:45.017                             : en:Chapter 16
  152. 01:21:44.190                             : en:Chapter 17
  153. 01:25:12.398                             : en:Chapter 18
  154. 01:31:28.566                             : en:Chapter 19
  155. 01:36:28.240                             : en:Chapter 20
  156. 01:43:04.636                             : en:Chapter 21
  157. 01:52:19.733                             : en:Chapter 22
復制代碼








分享到:  QQ好友和群QQ好友和群
收藏收藏
開通VIP免費下載本站所有資源---點這里
新手必看:資源下載常見問題---點這里
回復

使用道具 舉報

2#
發表于 2019-10-4 01:16:39 | 只看該作者
謝謝樓主分享
開通VIP免費下載本站所有資源---點這里
新手必看:資源下載常見問題---點這里
回復 支持 反對

使用道具 舉報

3#
發表于 2019-10-4 10:43:00 | 只看該作者
感謝樓主精彩分享。
開通VIP免費下載本站所有資源---點這里
新手必看:資源下載常見問題---點這里
回復 支持 反對

使用道具 舉報

4#
發表于 2019-10-4 11:10:27 | 只看該作者
我看不錯噢 謝謝樓主!藍光電影網越來越好............!
開通VIP免費下載本站所有資源---點這里
新手必看:資源下載常見問題---點這里
回復 支持 反對

使用道具 舉報

5#
發表于 2019-10-4 12:16:23 | 只看該作者
謝謝發片。
開通VIP免費下載本站所有資源---點這里
新手必看:資源下載常見問題---點這里
回復

使用道具 舉報

6#
發表于 2019-10-5 12:52:34 | 只看該作者
兄弟,辛苦了!
開通VIP免費下載本站所有資源---點這里
新手必看:資源下載常見問題---點這里
回復 支持 反對

使用道具 舉報

7#
發表于 2019-10-5 17:23:39 | 只看該作者
兄弟,辛苦了!
開通VIP免費下載本站所有資源---點這里
新手必看:資源下載常見問題---點這里
回復 支持 反對

使用道具 舉報

8#
發表于 2019-10-6 09:52:21 | 只看該作者

QQ 7711-41361銷--售  桑=拿=女  站=街=女。。學=妹。。少=婦。。。外=圍=資=料




QQ 7711-41361銷--售  桑=拿=女  站=街=女。。學=妹。。少=婦。。。外=圍=資=料




QQ 7711-41361銷--售  桑=拿=女  站=街=女。。學=妹。。少=婦。。。外=圍=資=料




QQ 7711-41361銷--售  桑=拿=女  站=街=女。。學=妹。。少=婦。。。外=圍=資=料




QQ 7711-41361銷--售  桑=拿=女  站=街=女。。學=妹。。少=婦。。。外=圍=資=料



開通VIP免費下載本站所有資源---點這里
新手必看:資源下載常見問題---點這里
回復 支持 反對

使用道具 舉報

9#
發表于 2019-10-8 07:59:57 | 只看該作者
我看不錯噢 謝謝樓主!藍光電影網越來越好............!
開通VIP免費下載本站所有資源---點這里
新手必看:資源下載常見問題---點這里
回復 支持 反對

使用道具 舉報

 成長值: 680

10#
發表于 2019-10-8 12:12:03 | 只看該作者
謝謝樓主無私分享。
開通VIP免費下載本站所有資源---點這里
新手必看:資源下載常見問題---點這里
回復 支持 反對

使用道具 舉報

懶得打字嘛,點擊右側快捷回復 【右側內容,后臺自定義】
您需要登錄后才可以回帖 登錄 | 立即加入

本版積分規則

現在加入藍光電影網,注冊一個賬號

QQ| 手機版|小黑屋| 藍光電影網 |網站地圖

Copyright © 2015-2019 Comsenz Inc.  Template by 藍光電影論壇 All Rights Reserved.

Powered by 藍光電影網 X3.4

特別聲明:本站所有資源均由網上收集而來,版權歸原影音公司所有,如果侵犯了你的權益,請通知我們,我們會及時刪除侵權內容.

快速回復 返回頂部 返回列表
北京pk10历史开奖直播