找回密碼

藍光電影網

查看: 284|回復: 2
打印 上一主題 下一主題

[10bit.SDR] 喪尸樂園/僵尸之地 Zombieland.2009.2160p.BluRay.x265.10bit.SDR.DTS-HD.MA.TrueHD.7.1.Atmos-SWTYBLZ 25.28GB

[復制鏈接]

 成長值: 1795

跳轉到指定樓層
1#
發表于 2019-10-3 00:19:31 | 只看該作者 |只看大圖 回帖獎勵 |倒序瀏覽 |閱讀模式


譯  名 喪尸樂園 / 僵尸之地 / 僵尸領地 / 尸樂園
片  名 Zombieland
年  代 2009
產  地 美國
類  別 喜劇 / 恐怖
語  言 英語
上映日期 2009-09-25(奧斯汀奇幻電影節) / 2009-10-02(美國)
IMDb評分  7.6/10 from 469378 users
IMDb鏈接  http://www.imdb.com/title/tt1156398
豆瓣評分 7.3/10 from 52500 users
豆瓣鏈接 https://movie.douban.com/subject/3259993/
片  長 88分鐘
導  演 魯本·弗雷斯徹 Ruben Fleischer
編  劇 略特·里斯 Rhett Reese / 保羅·韋尼克 Paul Wernick
主  演 杰西·艾森伯格 Jesse Eisenberg
       伍迪·哈里森 Woody Harrelson
       艾瑪·斯通 Emma Stone
       阿比蓋爾·布蕾斯琳 Abigail Breslin
       艾梅柏·希爾德 Amber Heard
       比爾·默瑞 Bill Murray
       Derek Graf


標  簽 喜劇 | 僵尸 | 美國 | 喪尸 | 恐怖 | 美國電影 | 2009 | 暴力

簡  介  

  未來某天,災難降臨世間,天災人禍讓地球瀕臨毀滅。更為可怕的是,恐怖病毒肆意蔓延,人類相繼化身為喪失人性、嗜血如命的恐怖僵尸。并且隨著時光的流逝,僵尸的智商不斷提升,已經成為規模龐大的恐怖大軍。經過幾個月的廝殺,居住在得州某小鎮的哥倫布(杰斯·艾森伯格 Jesse Eisenberg 飾)是少數的幸存者之一,他唯唯諾諾,行事謹慎,卻憑著總結出來的經驗一次又一次逃出生天。某天,哥倫布遇見作風驃悍的塔拉哈西(伍迪·哈里森 Woody Harrelson 飾),兩人一路同行,繼而邂逅性感美艷的姐妹花薇奇塔(艾瑪·斯通 Emma Stone 飾)和小石頭(阿比蓋爾·布萊斯林 Abigail Breslin 飾),他們由此開始了一段妙趣橫生、驚險刺激的旅程……
  本片榮獲2009年Sitges – Catalonian國際電影節觀眾獎。

獲獎情況  

  第19屆MTV電影獎(2010)
  MTV電影獎 最佳驚恐戲表演(提名) 杰西·艾森伯格
  MTV電影獎 最目瞪口呆場面(提名) 比爾·默瑞

  第14屆圣地亞哥影評人協會獎(2009)
  年度勞模 伍迪·哈里森

  第12屆美國青少年選擇獎(2010)
  最佳喜劇片女演員(提名) 艾瑪·斯通
  1. Video
  2. ID                                       : 1
  3. Format                                   : HEVC
  4. Format/Info                              : High Efficiency Video Coding
  5. Format profile                           : Main [email protected]@High
  6. Codec ID                                 : V_MPEGH/ISO/HEVC
  7. Duration                                 : 1 h 27 min
  8. Bit rate                                 : 32.5 Mb/s
  9. Width                                    : 3 840 pixels
  10. Height                                   : 1 606 pixels
  11. Display aspect ratio                     : 2.40:1
  12. Frame rate mode                          : Constant
  13. Frame rate                               : 23.976 (24000/1001) FPS
  14. Color space                              : YUV
  15. Chroma subsampling                       : 4:2:0
  16. Bit depth                                : 10 bits
  17. Bits/(Pixel*Frame)                       : 0.220
  18. Stream size                              : 19.9 GiB (79%)
  19. Title                                    : Zombieland.2009.2160p.BluRay.x265.10bit.SDR.DTS-HD.MA.TrueHD.7.1.Atmos-SWTYBLZ
  20. Writing library                          : x265 3.0ed72af837053:[Windows][GCC 8.2.0][64 bit] 10bit
  21. Encoding settings                        : cpuid=1111039 / frame-threads=16 / numa-pools=44,44 / wpp / no-pmode / no-pme / no-psnr / no-ssim / log-level=2 / input-csp=1 / input-res=3840x1606 / interlace=0 / total-frames=126168 / level-idc=51 / high-tier=1 / uhd-bd=0 / ref=3 / no-allow-non-conformance / repeat-headers / annexb / aud / hrd / info / hash=0 / no-temporal-layers / no-open-gop / min-keyint=1 / keyint=24 / gop-lookahead=0 / bframes=4 / b-adapt=2 / b-pyramid / bframe-bias=0 / rc-lookahead=25 / lookahead-slices=4 / scenecut=40 / radl=0 / no-splice / no-intra-refresh / ctu=64 / min-cu-size=8 / no-rect / no-amp / max-tu-size=32 / tu-inter-depth=1 / tu-intra-depth=1 / limit-tu=0 / rdoq-level=0 / dynamic-rd=0.00 / no-ssim-rd / signhide / no-tskip / nr-intra=0 / nr-inter=0 / no-constrained-intra / strong-intra-smoothing / max-merge=2 / limit-refs=3 / no-limit-modes / me=1 / subme=2 / merange=57 / temporal-mvp / weightp / no-weightb / no-analyze-src-pics / deblock=0:0 / no-sao / no-sao-non-deblock / rd=3 / no-early-skip / rskip / no-fast-intra / no-tskip-fast / no-cu-lossless / no-b-intra / no-splitrd-skip / rdpenalty=0 / psy-rd=2.00 / psy-rdoq=0.00 / no-rd-refine / no-lossless / cbqpoffs=0 / crqpoffs=0 / rc=crf / crf=16.0 / qcomp=0.60 / qpstep=4 / stats-write=0 / stats-read=0 / vbv-maxrate=160000 / vbv-bufsize=160000 / vbv-init=0.9 / crf-max=0.0 / crf-min=0.0 / ipratio=1.40 / pbratio=1.30 / aq-mode=1 / aq-strength=1.00 / cutree / zone-count=0 / no-strict-cbr / qg-size=32 / no-rc-grain / qpmax=69 / qpmin=0 / no-const-vbv / sar=1 / overscan=0 / videoformat=5 / range=0 / colorprim=2 / transfer=2 / colormatrix=2 / chromaloc=0 / display-window=0 / max-cll=0,0 / min-luma=0 / max-luma=1023 / log2-max-poc-lsb=8 / vui-timing-info / vui-hrd-info / slices=1 / opt-qp-pps / opt-ref-list-length-pps / no-multi-pass-opt-rps / scenecut-bias=0.05 / no-opt-cu-delta-qp / no-aq-motion / no-hdr / no-hdr-opt / no-dhdr10-opt / no-idr-recovery-sei / analysis-reuse-level=5 / scale-factor=0 / refine-intra=0 / refine-inter=0 / refine-mv=0 / refine-ctu-distortion=0 / no-limit-sao / ctu-info=0 / no-lowpass-dct / refine-analysis-type=0 / copy-pic=1 / max-ausize-factor=1.0 / no-dynamic-refine / no-single-sei / no-hevc-aq / qp-adaptation-range=1.00
  22. Default                                  : Yes
  23. Forced                                   : No

  24. Audio #1
  25. ID                                       : 2
  26. Format                                   : MLP FBA 16-ch
  27. Format/Info                              : Meridian Lossless Packing FBA with 16-channel presentation
  28. Commercial name                          : Dolby TrueHD with Dolby Atmos
  29. Codec ID                                 : A_TRUEHD
  30. Duration                                 : 1 h 27 min
  31. Bit rate mode                            : Variable
  32. Bit rate                                 : 3 096 kb/s
  33. Maximum bit rate                         : 4 956 kb/s
  34. Channel(s)                               : 8 channels
  35. Channel layout                           : L R C LFE Ls Rs Lb Rb
  36. Sampling rate                            : 48.0 kHz
  37. Frame rate                               : 1 200.000 FPS (40 SPF)
  38. Compression mode                         : Lossless
  39. Stream size                              : 1.90 GiB (8%)
  40. Title                                    : Zombieland.2009.2160p.BluRay.x265.10bit.SDR.DTS-HD.MA.TrueHD.7.1.Atmos-SWTYBLZ
  41. Language                                 : English
  42. Default                                  : Yes
  43. Forced                                   : No
  44. Number of dynamic objects                : 11
  45. Bed channel count                        : 1 channel
  46. Bed channel configuration                : LFE

  47. Audio #2
  48. ID                                       : 3
  49. Format                                   : DTS XLL
  50. Format/Info                              : Digital Theater Systems
  51. Commercial name                          : DTS-HD Master Audio
  52. Codec ID                                 : A_DTS
  53. Duration                                 : 1 h 27 min
  54. Bit rate mode                            : Variable
  55. Bit rate                                 : 4 362 kb/s
  56. Channel(s)                               : 8 channels
  57. Channel layout                           : C L R LFE Lb Rb Lss Rss
  58. Sampling rate                            : 48.0 kHz
  59. Frame rate                               : 93.750 FPS (512 SPF)
  60. Bit depth                                : 24 bits
  61. Compression mode                         : Lossless
  62. Stream size                              : 2.67 GiB (11%)
  63. Title                                    : Zombieland.2009.2160p.BluRay.x265.10bit.SDR.DTS-HD.MA.TrueHD.7.1.Atmos-SWTYBLZ
  64. Language                                 : English
  65. Default                                  : No
  66. Forced                                   : No

  67. Audio #3
  68. ID                                       : 4
  69. Format                                   : AC-3
  70. Format/Info                              : Audio Coding 3
  71. Commercial name                          : Dolby Digital
  72. Codec ID                                 : A_AC3
  73. Duration                                 : 1 h 27 min
  74. Bit rate mode                            : Constant
  75. Bit rate                                 : 640 kb/s
  76. Channel(s)                               : 6 channels
  77. Channel layout                           : L R C LFE Ls Rs
  78. Sampling rate                            : 48.0 kHz
  79. Frame rate                               : 31.250 FPS (1536 SPF)
  80. Bit depth                                : 16 bits
  81. Compression mode                         : Lossy
  82. Stream size                              : 401 MiB (2%)
  83. Title                                    : Zombieland.2009.2160p.BluRay.x265.10bit.SDR.DTS-HD.MA.TrueHD.7.1.Atmos-SWTYBLZ
  84. Language                                 : English
  85. Service kind                             : Complete Main
  86. Default                                  : No
  87. Forced                                   : No

  88. Text #1
  89. ID                                       : 5
  90. Format                                   : UTF-8
  91. Codec ID                                 : S_TEXT/UTF8
  92. Codec ID/Info                            : UTF-8 Plain Text
  93. Duration                                 : 1 h 26 min
  94. Bit rate                                 : 48 b/s
  95. Count of elements                        : 885
  96. Stream size                              : 30.6 KiB (0%)
  97. Title                                    : English-SRT
  98. Language                                 : English
  99. Default                                  : Yes
  100. Forced                                   : No

  101. Text #2
  102. ID                                       : 6
  103. Format                                   : PGS
  104. Muxing mode                              : zlib
  105. Codec ID                                 : S_HDMV/PGS
  106. Codec ID/Info                            : Picture based subtitle format used on BDs/HD-DVDs
  107. Duration                                 : 1 h 27 min
  108. Bit rate                                 : 37.5 kb/s
  109. Count of elements                        : 2552
  110. Stream size                              : 23.4 MiB (0%)
  111. Title                                    : English-SDH-PGS
  112. Language                                 : English
  113. Default                                  : No
  114. Forced                                   : No

  115. Text #3
  116. ID                                       : 7
  117. Format                                   : PGS
  118. Muxing mode                              : zlib
  119. Codec ID                                 : S_HDMV/PGS
  120. Codec ID/Info                            : Picture based subtitle format used on BDs/HD-DVDs
  121. Duration                                 : 1 h 26 min
  122. Bit rate                                 : 28.4 kb/s
  123. Count of elements                        : 1783
  124. Stream size                              : 17.7 MiB (0%)
  125. Title                                    : English-PGS
  126. Language                                 : English
  127. Default                                  : No
  128. Forced                                   : No

  129. Text #4
  130. ID                                       : 8
  131. Format                                   : PGS
  132. Muxing mode                              : zlib
  133. Codec ID                                 : S_HDMV/PGS
  134. Codec ID/Info                            : Picture based subtitle format used on BDs/HD-DVDs
  135. Duration                                 : 1 h 27 min
  136. Bit rate                                 : 37.5 kb/s
  137. Count of elements                        : 2554
  138. Stream size                              : 23.3 MiB (0%)
  139. Title                                    : English-SDH-PGS
  140. Language                                 : English
  141. Default                                  : No
  142. Forced                                   : No

  143. Text #5
  144. ID                                       : 9
  145. Format                                   : PGS
  146. Muxing mode                              : zlib
  147. Codec ID                                 : S_HDMV/PGS
  148. Codec ID/Info                            : Picture based subtitle format used on BDs/HD-DVDs
  149. Duration                                 : 1 h 26 min
  150. Bit rate                                 : 28.4 kb/s
  151. Count of elements                        : 1785
  152. Stream size                              : 17.7 MiB (0%)
  153. Title                                    : English-PGS
  154. Language                                 : English
  155. Default                                  : No
  156. Forced                                   : No

  157. Text #6
  158. ID                                       : 10
  159. Format                                   : PGS
  160. Muxing mode                              : zlib
  161. Codec ID                                 : S_HDMV/PGS
  162. Codec ID/Info                            : Picture based subtitle format used on BDs/HD-DVDs
  163. Duration                                 : 1 h 26 min
  164. Bit rate                                 : 24.7 kb/s
  165. Count of elements                        : 1874
  166. Stream size                              : 15.4 MiB (0%)
  167. Title                                    : Chinese-PGS
  168. Language                                 : Chinese
  169. Default                                  : No
  170. Forced                                   : No

  171. Text #7
  172. ID                                       : 11
  173. Format                                   : PGS
  174. Muxing mode                              : zlib
  175. Codec ID                                 : S_HDMV/PGS
  176. Codec ID/Info                            : Picture based subtitle format used on BDs/HD-DVDs
  177. Duration                                 : 1 h 26 min
  178. Bit rate                                 : 24.5 kb/s
  179. Count of elements                        : 1874
  180. Stream size                              : 15.2 MiB (0%)
  181. Title                                    : Chinese-PGS
  182. Language                                 : Chinese
  183. Default                                  : No
  184. Forced                                   : No

  185. Text #8
  186. ID                                       : 12
  187. Format                                   : PGS
  188. Muxing mode                              : zlib
  189. Codec ID                                 : S_HDMV/PGS
  190. Codec ID/Info                            : Picture based subtitle format used on BDs/HD-DVDs
  191. Duration                                 : 1 h 26 min
  192. Bit rate                                 : 24.4 kb/s
  193. Count of elements                        : 1785
  194. Stream size                              : 15.2 MiB (0%)
  195. Title                                    : Czech-PGS
  196. Language                                 : Czech
  197. Default                                  : No
  198. Forced                                   : No

  199. Text #9
  200. ID                                       : 13
  201. Format                                   : PGS
  202. Muxing mode                              : zlib
  203. Codec ID                                 : S_HDMV/PGS
  204. Codec ID/Info                            : Picture based subtitle format used on BDs/HD-DVDs
  205. Duration                                 : 1 h 26 min
  206. Bit rate                                 : 25.5 kb/s
  207. Count of elements                        : 1696
  208. Stream size                              : 15.9 MiB (0%)
  209. Title                                    : Danish-PGS
  210. Language                                 : Danish
  211. Default                                  : No
  212. Forced                                   : No

  213. Text #10
  214. ID                                       : 14
  215. Format                                   : PGS
  216. Muxing mode                              : zlib
  217. Codec ID                                 : S_HDMV/PGS
  218. Codec ID/Info                            : Picture based subtitle format used on BDs/HD-DVDs
  219. Duration                                 : 1 h 27 min
  220. Bit rate                                 : 26.4 kb/s
  221. Count of elements                        : 1851
  222. Stream size                              : 16.5 MiB (0%)
  223. Title                                    : Dutch-PGS
  224. Language                                 : Dutch
  225. Default                                  : No
  226. Forced                                   : No

  227. Text #11
  228. ID                                       : 15
  229. Format                                   : PGS
  230. Muxing mode                              : zlib
  231. Codec ID                                 : S_HDMV/PGS
  232. Codec ID/Info                            : Picture based subtitle format used on BDs/HD-DVDs
  233. Duration                                 : 1 h 27 min
  234. Bit rate                                 : 24.1 kb/s
  235. Count of elements                        : 1756
  236. Stream size                              : 15.0 MiB (0%)
  237. Title                                    : Finnish-PGS
  238. Language                                 : Finnish
  239. Default                                  : No
  240. Forced                                   : No

  241. Text #12
  242. ID                                       : 16
  243. Format                                   : PGS
  244. Muxing mode                              : zlib
  245. Codec ID                                 : S_HDMV/PGS
  246. Codec ID/Info                            : Picture based subtitle format used on BDs/HD-DVDs
  247. Duration                                 : 1 h 27 min
  248. Bit rate                                 : 23.2 kb/s
  249. Count of elements                        : 1784
  250. Stream size                              : 14.5 MiB (0%)
  251. Title                                    : French-PGS
  252. Language                                 : French
  253. Default                                  : No
  254. Forced                                   : No

  255. Text #13
  256. ID                                       : 17
  257. Format                                   : PGS
  258. Muxing mode                              : zlib
  259. Codec ID                                 : S_HDMV/PGS
  260. Codec ID/Info                            : Picture based subtitle format used on BDs/HD-DVDs
  261. Duration                                 : 1 h 26 min
  262. Bit rate                                 : 25.7 kb/s
  263. Count of elements                        : 1637
  264. Stream size                              : 16.0 MiB (0%)
  265. Title                                    : German-PGS
  266. Language                                 : German
  267. Default                                  : No
  268. Forced                                   : No

  269. Text #14
  270. ID                                       : 18
  271. Format                                   : PGS
  272. Muxing mode                              : zlib
  273. Codec ID                                 : S_HDMV/PGS
  274. Codec ID/Info                            : Picture based subtitle format used on BDs/HD-DVDs
  275. Duration                                 : 1 h 12 min
  276. Bit rate                                 : 210 b/s
  277. Count of elements                        : 14
  278. Stream size                              : 111 KiB (0%)
  279. Title                                    : German-FORCED-PGS
  280. Language                                 : German
  281. Default                                  : No
  282. Forced                                   : No

  283. Text #15
  284. ID                                       : 19
  285. Format                                   : PGS
  286. Muxing mode                              : zlib
  287. Codec ID                                 : S_HDMV/PGS
  288. Codec ID/Info                            : Picture based subtitle format used on BDs/HD-DVDs
  289. Duration                                 : 1 h 26 min
  290. Bit rate                                 : 27.6 kb/s
  291. Count of elements                        : 1864
  292. Stream size                              : 17.2 MiB (0%)
  293. Title                                    : Greek-PGS
  294. Language                                 : Greek
  295. Default                                  : No
  296. Forced                                   : No

  297. Text #16
  298. ID                                       : 20
  299. Format                                   : PGS
  300. Muxing mode                              : zlib
  301. Codec ID                                 : S_HDMV/PGS
  302. Codec ID/Info                            : Picture based subtitle format used on BDs/HD-DVDs
  303. Duration                                 : 1 h 26 min
  304. Bit rate                                 : 23.3 kb/s
  305. Count of elements                        : 1870
  306. Stream size                              : 14.5 MiB (0%)
  307. Title                                    : Hindi-PGS
  308. Language                                 : Hindi
  309. Default                                  : No
  310. Forced                                   : No

  311. Text #17
  312. ID                                       : 21
  313. Format                                   : PGS
  314. Muxing mode                              : zlib
  315. Codec ID                                 : S_HDMV/PGS
  316. Codec ID/Info                            : Picture based subtitle format used on BDs/HD-DVDs
  317. Duration                                 : 1 h 27 min
  318. Bit rate                                 : 22.9 kb/s
  319. Count of elements                        : 1722
  320. Stream size                              : 14.3 MiB (0%)
  321. Title                                    : Hungarian-PGS
  322. Language                                 : Hungarian
  323. Default                                  : No
  324. Forced                                   : No

  325. Text #18
  326. ID                                       : 22
  327. Format                                   : PGS
  328. Muxing mode                              : zlib
  329. Codec ID                                 : S_HDMV/PGS
  330. Codec ID/Info                            : Picture based subtitle format used on BDs/HD-DVDs
  331. Duration                                 : 1 h 27 min
  332. Bit rate                                 : 30.3 kb/s
  333. Count of elements                        : 1916
  334. Stream size                              : 18.9 MiB (0%)
  335. Title                                    : Italian-PGS
  336. Language                                 : Italian
  337. Default                                  : No
  338. Forced                                   : No

  339. Text #19
  340. ID                                       : 23
  341. Format                                   : PGS
  342. Muxing mode                              : zlib
  343. Codec ID                                 : S_HDMV/PGS
  344. Codec ID/Info                            : Picture based subtitle format used on BDs/HD-DVDs
  345. Duration                                 : 1 h 26 min
  346. Bit rate                                 : 20.9 kb/s
  347. Count of elements                        : 1684
  348. Stream size                              : 13.0 MiB (0%)
  349. Title                                    : Japanese-PGS
  350. Language                                 : Japanese
  351. Default                                  : No
  352. Forced                                   : No

  353. Text #20
  354. ID                                       : 24
  355. Format                                   : PGS
  356. Muxing mode                              : zlib
  357. Codec ID                                 : S_HDMV/PGS
  358. Codec ID/Info                            : Picture based subtitle format used on BDs/HD-DVDs
  359. Duration                                 : 1 h 26 min
  360. Bit rate                                 : 21.1 kb/s
  361. Count of elements                        : 1852
  362. Stream size                              : 13.1 MiB (0%)
  363. Title                                    : Korean-PGS
  364. Language                                 : Korean
  365. Default                                  : No
  366. Forced                                   : No

  367. Text #21
  368. ID                                       : 25
  369. Format                                   : PGS
  370. Muxing mode                              : zlib
  371. Codec ID                                 : S_HDMV/PGS
  372. Codec ID/Info                            : Picture based subtitle format used on BDs/HD-DVDs
  373. Duration                                 : 1 h 27 min
  374. Bit rate                                 : 23.2 kb/s
  375. Count of elements                        : 1817
  376. Stream size                              : 14.5 MiB (0%)
  377. Title                                    : Norwegian-PGS
  378. Language                                 : Norwegian
  379. Default                                  : No
  380. Forced                                   : No

  381. Text #22
  382. ID                                       : 26
  383. Format                                   : PGS
  384. Muxing mode                              : zlib
  385. Codec ID                                 : S_HDMV/PGS
  386. Codec ID/Info                            : Picture based subtitle format used on BDs/HD-DVDs
  387. Duration                                 : 1 h 27 min
  388. Bit rate                                 : 22.4 kb/s
  389. Count of elements                        : 1727
  390. Stream size                              : 13.9 MiB (0%)
  391. Title                                    : Polish-PGS
  392. Language                                 : Polish
  393. Default                                  : No
  394. Forced                                   : No

  395. Text #23
  396. ID                                       : 27
  397. Format                                   : PGS
  398. Muxing mode                              : zlib
  399. Codec ID                                 : S_HDMV/PGS
  400. Codec ID/Info                            : Picture based subtitle format used on BDs/HD-DVDs
  401. Duration                                 : 1 h 27 min
  402. Bit rate                                 : 23.6 kb/s
  403. Count of elements                        : 1716
  404. Stream size                              : 14.7 MiB (0%)
  405. Title                                    : Portuguese-PGS
  406. Language                                 : Portuguese
  407. Default                                  : No
  408. Forced                                   : No

  409. Text #24
  410. ID                                       : 28
  411. Format                                   : PGS
  412. Muxing mode                              : zlib
  413. Codec ID                                 : S_HDMV/PGS
  414. Codec ID/Info                            : Picture based subtitle format used on BDs/HD-DVDs
  415. Duration                                 : 1 h 27 min
  416. Bit rate                                 : 28.8 kb/s
  417. Count of elements                        : 1767
  418. Stream size                              : 18.0 MiB (0%)
  419. Title                                    : Romanian-PGS
  420. Language                                 : Romanian
  421. Default                                  : No
  422. Forced                                   : No

  423. Text #25
  424. ID                                       : 29
  425. Format                                   : PGS
  426. Muxing mode                              : zlib
  427. Codec ID                                 : S_HDMV/PGS
  428. Codec ID/Info                            : Picture based subtitle format used on BDs/HD-DVDs
  429. Duration        
復制代碼









分享到:  QQ好友和群QQ好友和群
收藏收藏
開通VIP免費下載本站所有資源---點這里
新手必看:資源下載常見問題---點這里
回復

使用道具 舉報

2#
發表于 2019-10-3 20:30:05 | 只看該作者
樓主發貼辛苦了,謝謝樓主分享!我覺得藍光電影網是注冊對了!
開通VIP免費下載本站所有資源---點這里
新手必看:資源下載常見問題---點這里
回復 支持 反對

使用道具 舉報

3#
發表于 2019-10-5 21:19:56 | 只看該作者
樓主發貼辛苦了,謝謝樓主分享!我覺得藍光電影網是注冊對了!
開通VIP免費下載本站所有資源---點這里
新手必看:資源下載常見問題---點這里
回復 支持 反對

使用道具 舉報

懶得打字嘛,點擊右側快捷回復 【右側內容,后臺自定義】
您需要登錄后才可以回帖 登錄 | 立即加入

本版積分規則

現在加入藍光電影網,注冊一個賬號

QQ| 手機版|小黑屋| 藍光電影網 |網站地圖

Copyright © 2015-2019 Comsenz Inc.  Template by 藍光電影論壇 All Rights Reserved.

Powered by 藍光電影網 X3.4

特別聲明:本站所有資源均由網上收集而來,版權歸原影音公司所有,如果侵犯了你的權益,請通知我們,我們會及時刪除侵權內容.

快速回復 返回頂部 返回列表
北京pk10历史开奖直播