找回密碼

藍光電影網

查看: 609|回復: 30
打印 上一主題 下一主題

[10bit.HDR] 蟻人 Ant-Man.2015.2160p.UHD.BluRay.X265.10bit.HDR.TrueHD.7.1.Atmos-AViATOR 10.05GB

[復制鏈接]

 成長值: 1810

跳轉到指定樓層
1#
發表于 2019-10-2 13:57:12 | 只看該作者 |只看大圖 回帖獎勵 |倒序瀏覽 |閱讀模式


譯  名 蟻人 / Antman / 蟻俠(港)
片  名 Ant-Man
年  代 2015
產  地 美國
類  別 動作 / 科幻 / 冒險
語  言 英語
上映日期 2015-07-17(美國) / 2015-10-16(中國大陸)
IMDb評分  7.3/10 from 517577 users
IMDb鏈接  http://www.imdb.com/title/tt0478970
豆瓣評分 7.7/10 from 345830 users
豆瓣鏈接 https://movie.douban.com/subject/1866473/
片  長 117分鐘
導  演 佩頓·里德 Peyton Reed
編  劇 斯坦·李 Stan Lee / 杰克·科比 Jack Kirby / 拉里·利伯 Larry Lieber / 埃德加·賴特 Edgar Wright / 喬·考尼什 Joe Cornish / 亞當·麥凱 Adam McKay / 保羅·路德 Paul Rudd
主  演 保羅·路德 Paul Rudd
       邁克爾·道格拉斯 Michael Douglas
       伊萬杰琳·莉莉 Evangeline Lilly
       寇瑞·斯托爾 Corey Stoll
       邁克爾·佩納 Michael Pe?a
       大衛·達斯馬齊連 David Dastmalchian
       朱迪·格雷爾 Judy Greer
       鮑比·坎納瓦爾 Bobby Cannavale
       約翰·斯拉特里 John Slattery
       伍德·哈里斯 Wood Harris
       T.I.
       海莉·阿特維爾 Hayley Atwell
       瓦內薩·羅斯 Vanessa Ross
       馬丁·唐文 Martin Donovan
       喬·克里斯特 Joe Chrest
       艾比·萊德·弗特森 Abby Ryder Fortson
       安東尼·麥凱 Anthony Mackie
       加勒特·莫里斯 Garrett Morris
       尼爾·漢博格 Neil Hamburger
       魯德·哈利特 Rod Hallett
       斯坦·李 Stan Lee
       克里斯·埃文斯 Chris Evans
       塞巴斯蒂安·斯坦 Sebastian Stan


標  簽 漫威 | 科幻 | 美國 | 超級英雄 | Marvel | 動作 | 2015 | 漫畫改編

簡  介  

  前工程師斯科特(保羅·路德 Paul Rudd 飾)由于劫富濟貧進了監獄,出獄后的他為了爭取看望女兒的權利又走上了盜竊之路。沒想到一次意外的偷盜事件讓他成為了新一代“蟻人”,老蟻人漢克.皮姆博士(邁克爾·道格拉斯 Michael Douglas 飾)成為了他的導師,可皮姆博士的女兒霍普(伊萬杰琳·莉莉 Evangeline Lilly 飾)卻并不看好他。但是危機迫在眉睫,為了對付強大的敵人拯救世界,斯科特不得不叫來自己的一幫狐朋狗友幫助自己完成一個不可能完成的任務。而取得任務的成功也是斯科特挽回女兒的關鍵,屌絲能否逆襲就看最后一擊。

獲獎情況  

  第69屆英國電影學院獎(2016)
  電影獎 最佳特殊視覺效果(提名) Alex Wuttke / Jake Morrison / Greg Steele / 丹尼爾·薩迪克

  第66屆美國剪輯工會獎(2016)
  音樂/喜劇片最佳剪輯(提名)

  第14屆美國視覺效果協會獎(2016)
  最佳真人電影CG背景(提名)
  最佳電影虛擬攝影(提名)

  第21屆美國評論家選擇電影獎(2016)
  動作片最佳男主角(提名) 保羅·路德

  第17屆美國青少年選擇獎(2015)
  最佳暑期電影男演員(提名) 保羅·路德
  最佳暑期電影女演員(提名) 伊萬杰琳·莉莉

  第2屆豆瓣電影年度榜單(2015)
  10月最受關注電影(提名)

  第6屆豆瓣電影鑫像獎(2016)
  鑫豆單元 最佳科幻/動作片(提名)

  1. Video
  2. ID                                       : 1
  3. Format                                   : HEVC
  4. Format/Info                              : High Efficiency Video Coding
  5. Format profile                           : Main [email protected]@High
  6. HDR format                               : SMPTE ST 2086, HDR10 compatible
  7. Codec ID                                 : V_MPEGH/ISO/HEVC
  8. Duration                                 : 1 h 57 min
  9. Bit rate                                 : 6 932 kb/s
  10. Width                                    : 3 840 pixels
  11. Height                                   : 2 076 pixels
  12. Display aspect ratio                     : 1.85:1
  13. Frame rate mode                          : Constant
  14. Frame rate                               : 23.976 (24000/1001) FPS
  15. Color space                              : YUV
  16. Chroma subsampling                       : 4:2:0 (Type 2)
  17. Bit depth                                : 10 bits
  18. Bits/(Pixel*Frame)                       : 0.036
  19. Stream size                              : 5.67 GiB (57%)
  20. Writing library                          : x265 3.1+11-de920e0a3183:[Windows][GCC 6.3.0][64 bit] 10bit
  21. Encoding settings                        : cpuid=1176575 / frame-threads=6 / numa-pools=36 / wpp / no-pmode / no-pme / no-psnr / no-ssim / log-level=2 / input-csp=1 / input-res=3840x2076 / interlace=0 / total-frames=168464 / level-idc=51 / high-tier=1 / uhd-bd=0 / ref=4 / no-allow-non-conformance / repeat-headers / annexb / aud / hrd / info / hash=0 / no-temporal-layers / no-open-gop / min-keyint=1 / keyint=24 / gop-lookahead=0 / bframes=4 / b-adapt=2 / b-pyramid / bframe-bias=0 / rc-lookahead=25 / lookahead-slices=4 / scenecut=40 / radl=0 / no-splice / no-intra-refresh / ctu=64 / min-cu-size=8 / rect / no-amp / max-tu-size=32 / tu-inter-depth=1 / tu-intra-depth=1 / limit-tu=0 / rdoq-level=2 / dynamic-rd=0.00 / no-ssim-rd / signhide / no-tskip / nr-intra=0 / nr-inter=0 / no-constrained-intra / no-strong-intra-smoothing / max-merge=3 / limit-refs=3 / limit-modes / me=3 / subme=3 / merange=57 / temporal-mvp / no-hme / weightp / no-weightb / no-analyze-src-pics / deblock=-3:-3 / no-sao / no-sao-non-deblock / rd=4 / no-early-skip / rskip / no-fast-intra / no-tskip-fast / no-cu-lossless / no-b-intra / no-splitrd-skip / rdpenalty=0 / psy-rd=2.00 / psy-rdoq=1.00 / no-rd-refine / no-lossless / cbqpoffs=0 / crqpoffs=0 / rc=crf / crf=17.0 / qcomp=0.60 / qpstep=4 / stats-write=0 / stats-read=0 / vbv-maxrate=160000 / vbv-bufsize=160000 / vbv-init=0.9 / crf-max=0.0 / crf-min=0.0 / ipratio=1.40 / pbratio=1.30 / aq-mode=2 / aq-strength=1.00 / cutree / zone-count=0 / no-strict-cbr / qg-size=32 / no-rc-grain / qpmax=69 / qpmin=0 / no-const-vbv / sar=1 / overscan=0 / videoformat=5 / range=0 / colorprim=9 / transfer=16 / colormatrix=9 / chromaloc=1 / chromaloc-top=2 / chromaloc-bottom=2 / display-window=0 / master-display=G(13250,34500)B(7500,3000)R(34000,16000)WP(15635,16450)L(40000000,50)cll=577,512 / min-luma=0 / max-luma=1023 / log2-max-poc-lsb=8 / vui-timing-info / vui-hrd-info / slices=1 / no-opt-qp-pps / no-opt-ref-list-length-pps / no-multi-pass-opt-rps / scenecut-bias=0.05 / no-opt-cu-delta-qp / no-aq-motion / hdr / hdr-opt / no-dhdr10-opt / no-idr-recovery-sei / analysis-reuse-level=5 / scale-factor=0 / refine-intra=0 / refine-inter=0 / refine-mv=0 / refine-ctu-distortion=0 / no-limit-sao / ctu-info=0 / no-lowpass-dct / refine-analysis-type=0 / copy-pic=1 / max-ausize-factor=1.0 / no-dynamic-refine / no-single-sei / no-hevc-aq / no-svt / no-field / qp-adaptation-range=1.00
  22. Default                                  : Yes
  23. Forced                                   : No
  24. Color range                              : Limited
  25. Color primaries                          : BT.2020
  26. Transfer characteristics                 : PQ
  27. Matrix coefficients                      : BT.2020 non-constant
  28. Mastering display color primaries        : Display P3
  29. Mastering display luminance              : min: 0.0050 cd/m2, max: 4000 cd/m2
  30. Maximum Content Light Level              : 577 cd/m2
  31. Maximum Frame-Average Light Level        : 512 cd/m2

  32. Audio #1
  33. ID                                       : 2
  34. Format                                   : MLP FBA 16-ch
  35. Format/Info                              : Meridian Lossless Packing FBA with 16-channel presentation
  36. Commercial name                          : Dolby TrueHD with Dolby Atmos
  37. Codec ID                                 : A_TRUEHD
  38. Duration                                 : 1 h 57 min
  39. Bit rate mode                            : Variable
  40. Bit rate                                 : 4 485 kb/s
  41. Maximum bit rate                         : 8 226 kb/s
  42. Channel(s)                               : 8 channels
  43. Channel layout                           : L R C LFE Ls Rs Lb Rb
  44. Sampling rate                            : 48.0 kHz
  45. Frame rate                               : 1 200.000 FPS (40 SPF)
  46. Compression mode                         : Lossless
  47. Stream size                              : 3.67 GiB (37%)
  48. Language                                 : English
  49. Default                                  : Yes
  50. Forced                                   : No
  51. Number of dynamic objects                : 13
  52. Bed channel count                        : 1 channel
  53. Bed channel configuration                : LFE

  54. Audio #2
  55. ID                                       : 3
  56. Format                                   : AC-3
  57. Format/Info                              : Audio Coding 3
  58. Commercial name                          : Dolby Digital
  59. Codec ID                                 : A_AC3
  60. Duration                                 : 1 h 57 min
  61. Bit rate mode                            : Constant
  62. Bit rate                                 : 640 kb/s
  63. Channel(s)                               : 6 channels
  64. Channel layout                           : L R C LFE Ls Rs
  65. Sampling rate                            : 48.0 kHz
  66. Frame rate                               : 31.250 FPS (1536 SPF)
  67. Bit depth                                : 16 bits
  68. Compression mode                         : Lossy
  69. Stream size                              : 536 MiB (5%)
  70. Language                                 : English
  71. Service kind                             : Complete Main
  72. Default                                  : No
  73. Forced                                   : No

  74. Text #1
  75. ID                                       : 4
  76. Format                                   : PGS
  77. Muxing mode                              : zlib
  78. Codec ID                                 : S_HDMV/PGS
  79. Codec ID/Info                            : Picture based subtitle format used on BDs/HD-DVDs
  80. Duration                                 : 1 h 56 min
  81. Bit rate                                 : 40.3 kb/s
  82. Count of elements                        : 3432
  83. Stream size                              : 33.6 MiB (0%)
  84. Title                                    : English SDH
  85. Language                                 : English
  86. Default                                  : No
  87. Forced                                   : No

  88. Text #2
  89. ID                                       : 5
  90. Format                                   : PGS
  91. Muxing mode                              : zlib
  92. Codec ID                                 : S_HDMV/PGS
  93. Codec ID/Info                            : Picture based subtitle format used on BDs/HD-DVDs
  94. Duration                                 : 1 h 56 min
  95. Bit rate                                 : 34.5 kb/s
  96. Count of elements                        : 3038
  97. Stream size                              : 28.8 MiB (0%)
  98. Title                                    : French
  99. Language                                 : French
  100. Default                                  : No
  101. Forced                                   : No

  102. Text #3
  103. ID                                       : 6
  104. Format                                   : PGS
  105. Muxing mode                              : zlib
  106. Codec ID                                 : S_HDMV/PGS
  107. Codec ID/Info                            : Picture based subtitle format used on BDs/HD-DVDs
  108. Duration                                 : 1 h 56 min
  109. Bit rate                                 : 29.4 kb/s
  110. Count of elements                        : 2954
  111. Stream size                              : 24.5 MiB (0%)
  112. Title                                    : French
  113. Language                                 : French
  114. Default                                  : No
  115. Forced                                   : No

  116. Text #4
  117. ID                                       : 7
  118. Format                                   : PGS
  119. Muxing mode                              : zlib
  120. Codec ID                                 : S_HDMV/PGS
  121. Codec ID/Info                            : Picture based subtitle format used on BDs/HD-DVDs
  122. Duration                                 : 1 h 56 min
  123. Bit rate                                 : 35.8 kb/s
  124. Count of elements                        : 3062
  125. Stream size                              : 29.9 MiB (0%)
  126. Title                                    : Spanish
  127. Language                                 : Spanish
  128. Default                                  : No
  129. Forced                                   : No

  130. Text #5
  131. ID                                       : 8
  132. Format                                   : PGS
  133. Muxing mode                              : zlib
  134. Codec ID                                 : S_HDMV/PGS
  135. Codec ID/Info                            : Picture based subtitle format used on BDs/HD-DVDs
  136. Duration                                 : 1 h 56 min
  137. Bit rate                                 : 30.0 kb/s
  138. Count of elements                        : 2990
  139. Stream size                              : 25.0 MiB (0%)
  140. Title                                    : German
  141. Language                                 : German
  142. Default                                  : No
  143. Forced                                   : No

  144. Text #6
  145. ID                                       : 9
  146. Format                                   : PGS
  147. Muxing mode                              : zlib
  148. Codec ID                                 : S_HDMV/PGS
  149. Codec ID/Info                            : Picture based subtitle format used on BDs/HD-DVDs
  150. Duration                                 : 1 h 56 min
  151. Bit rate                                 : 35.7 kb/s
  152. Count of elements                        : 3084
  153. Stream size                              : 29.8 MiB (0%)
  154. Title                                    : Italian
  155. Language                                 : Italian
  156. Default                                  : No
  157. Forced                                   : No

  158. Text #7
  159. ID                                       : 10
  160. Format                                   : PGS
  161. Muxing mode                              : zlib
  162. Codec ID                                 : S_HDMV/PGS
  163. Codec ID/Info                            : Picture based subtitle format used on BDs/HD-DVDs
  164. Duration                                 : 1 h 56 min
  165. Bit rate                                 : 23.7 kb/s
  166. Count of elements                        : 2866
  167. Stream size                              : 19.8 MiB (0%)
  168. Title                                    : Japanese
  169. Language                                 : Japanese
  170. Default                                  : No
  171. Forced                                   : No

  172. Text #8
  173. ID                                       : 11
  174. Format                                   : PGS
  175. Muxing mode                              : zlib
  176. Codec ID                                 : S_HDMV/PGS
  177. Codec ID/Info                            : Picture based subtitle format used on BDs/HD-DVDs
  178. Duration                                 : 1 h 56 min
  179. Bit rate                                 : 33.0 kb/s
  180. Count of elements                        : 3056
  181. Stream size                              : 27.5 MiB (0%)
  182. Title                                    : Norwegian
  183. Language                                 : Norwegian
  184. Default                                  : No
  185. Forced                                   : No

  186. Text #9
  187. ID                                       : 12
  188. Format                                   : PGS
  189. Muxing mode                              : zlib
  190. Codec ID                                 : S_HDMV/PGS
  191. Codec ID/Info                            : Picture based subtitle format used on BDs/HD-DVDs
  192. Duration                                 : 1 h 56 min
  193. Bit rate                                 : 26.9 kb/s
  194. Count of elements                        : 1928
  195. Stream size                              : 22.5 MiB (0%)
  196. Title                                    : Swedish
  197. Language                                 : Swedish
  198. Default                                  : No
  199. Forced                                   : No

  200. Text #10
  201. ID                                       : 13
  202. Format                                   : PGS
  203. Muxing mode                              : zlib
  204. Codec ID                                 : S_HDMV/PGS
  205. Codec ID/Info                            : Picture based subtitle format used on BDs/HD-DVDs
  206. Duration                                 : 1 h 54 min
  207. Bit rate                                 : 196 b/s
  208. Count of elements                        : 14
  209. Stream size                              : 164 KiB (0%)
  210. Title                                    : French
  211. Language                                 : French
  212. Default                                  : No
  213. Forced                                   : No

  214. Text #11
  215. ID                                       : 14
  216. Format                                   : PGS
  217. Muxing mode                              : zlib
  218. Codec ID                                 : S_HDMV/PGS
  219. Codec ID/Info                            : Picture based subtitle format used on BDs/HD-DVDs
  220. Duration                                 : 1 h 54 min
  221. Bit rate                                 : 27 b/s
  222. Count of elements                        : 4
  223. Stream size                              : 23.3 KiB (0%)
  224. Title                                    : French
  225. Language                                 : French
  226. Default                                  : No
  227. Forced                                   : No

  228. Text #12
  229. ID                                       : 15
  230. Format                                   : PGS
  231. Muxing mode                              : zlib
  232. Codec ID                                 : S_HDMV/PGS
  233. Codec ID/Info                            : Picture based subtitle format used on BDs/HD-DVDs
  234. Duration                                 : 1 h 54 min
  235. Bit rate                                 : 129 b/s
  236. Count of elements                        : 10
  237. Stream size                              : 109 KiB (0%)
  238. Title                                    : Spanish
  239. Language                                 : Spanish
  240. Default                                  : No
  241. Forced                                   : No

  242. Text #13
  243. ID                                       : 16
  244. Format                                   : PGS
  245. Muxing mode                              : zlib
  246. Codec ID                                 : S_HDMV/PGS
  247. Codec ID/Info                            : Picture based subtitle format used on BDs/HD-DVDs
  248. Duration                                 : 2 s 2 ms
  249. Bit rate                                 : 16.7 kb/s
  250. Count of elements                        : 2
  251. Stream size                              : 4.07 KiB (0%)
  252. Title                                    : German
  253. Language                                 : German
  254. Default                                  : No
  255. Forced                                   : No

  256. Text #14
  257. ID                                       : 17
  258. Format                                   : PGS
  259. Muxing mode                              : zlib
  260. Codec ID                                 : S_HDMV/PGS
  261. Codec ID/Info                            : Picture based subtitle format used on BDs/HD-DVDs
  262. Duration                                 : 1 h 54 min
  263. Bit rate                                 : 24 b/s
  264. Count of elements                        : 4
  265. Stream size                              : 20.2 KiB (0%)
  266. Title                                    : Italian
  267. Language                                 : Italian
  268. Default                                  : No
  269. Forced                                   : No

  270. Text #15
  271. ID                                       : 18
  272. Format                                   : PGS
  273. Muxing mode                              : zlib
  274. Codec ID                                 : S_HDMV/PGS
  275. Codec ID/Info                            : Picture based subtitle format used on BDs/HD-DVDs
  276. Duration                                 : 1 h 56 min
  277. Bit rate                                 : 92 b/s
  278. Count of elements                        : 12
  279. Stream size                              : 79.5 KiB (0%)
  280. Title                                    : Japanese
  281. Language                                 : Japanese
  282. Default                                  : No
  283. Forced                                   : No
復制代碼







分享到:  QQ好友和群QQ好友和群
收藏收藏
開通VIP免費下載本站所有資源---點這里
新手必看:資源下載常見問題---點這里
回復

使用道具 舉報

2#
發表于 2019-10-2 14:32:46 | 只看該作者
下載來看看............
開通VIP免費下載本站所有資源---點這里
新手必看:資源下載常見問題---點這里
回復 支持 反對

使用道具 舉報

3#
發表于 2019-10-2 15:14:01 | 只看該作者
,有創意,不錯哦。
開通VIP免費下載本站所有資源---點這里
新手必看:資源下載常見問題---點這里
回復 支持 反對

使用道具 舉報

4#
發表于 2019-10-2 16:37:09 | 只看該作者

這個帖子不回對不起自己!我想我是一天也不能離開藍光電影網
開通VIP免費下載本站所有資源---點這里
新手必看:資源下載常見問題---點這里
回復 支持 反對

使用道具 舉報

5#
發表于 2019-10-2 19:44:45 | 只看該作者
樓主發貼辛苦了,謝謝樓主分享!我覺得藍光電影網是注冊對了!
開通VIP免費下載本站所有資源---點這里
新手必看:資源下載常見問題---點這里
回復 支持 反對

使用道具 舉報

6#
發表于 2019-10-2 20:58:59 | 只看該作者

樓主太厲害了!樓主,電影應該很好看我覺得藍光電影網真是個好地方!
開通VIP免費下載本站所有資源---點這里
新手必看:資源下載常見問題---點這里
回復 支持 反對

使用道具 舉報

7#
發表于 2019-10-2 22:46:09 | 只看該作者
樓主發貼辛苦了,謝謝樓主分享!我覺得藍光電影網是注冊對了!
開通VIP免費下載本站所有資源---點這里
新手必看:資源下載常見問題---點這里
回復 支持 反對

使用道具 舉報

8#
發表于 2019-10-2 23:28:03 | 只看該作者

既然你誠信誠意的推薦了,那我就勉為其難的看看吧!藍光電影網不走平凡路。
開通VIP免費下載本站所有資源---點這里
新手必看:資源下載常見問題---點這里
回復 支持 反對

使用道具 舉報

9#
發表于 2019-10-3 00:00:46 | 只看該作者

我看不錯噢 謝謝樓主!藍光電影網越來越好!
開通VIP免費下載本站所有資源---點這里
新手必看:資源下載常見問題---點這里
回復 支持 反對

使用道具 舉報

10#
發表于 2019-10-3 00:03:18 | 只看該作者
我看不錯噢 謝謝樓主!藍光電影網越來越好!
開通VIP免費下載本站所有資源---點這里
新手必看:資源下載常見問題---點這里
回復 支持 反對

使用道具 舉報

懶得打字嘛,點擊右側快捷回復 【右側內容,后臺自定義】
您需要登錄后才可以回帖 登錄 | 立即加入

本版積分規則

現在加入藍光電影網,注冊一個賬號

QQ| 手機版|小黑屋| 藍光電影網 |網站地圖

Copyright © 2015-2019 Comsenz Inc.  Template by 藍光電影論壇 All Rights Reserved.

Powered by 藍光電影網 X3.4

特別聲明:本站所有資源均由網上收集而來,版權歸原影音公司所有,如果侵犯了你的權益,請通知我們,我們會及時刪除侵權內容.

快速回復 返回頂部 返回列表
北京pk10历史开奖直播