找回密碼

藍光電影網

查看: 8536|回復: 265
打印 上一主題 下一主題

[科幻] 蜘蛛俠:英雄遠征/新蜘蛛俠2 Spider-Man.Far.from.Home.2019.1080p.BluRay.x264.DTS-HD.MA.7.1-FGT 10.84GB

  [復制鏈接]

 成長值: 1795

跳轉到指定樓層
1#
發表于 2019-9-19 16:18:56 | 只看該作者 |只看大圖 回帖獎勵 |倒序瀏覽 |閱讀模式


譯  名 蜘蛛俠:英雄遠征 / 新蜘蛛俠2 / 蜘蛛俠2 / 蜘蛛俠2:離家出走(豆友譯名) / 蜘蛛俠2:英雄離鄉 / 蜘蛛俠2:遠離家鄉 / 蜘蛛俠:決戰千里(港) / 蜘蛛俠:歸來2 / 蜘蛛俠:離家日(臺) / 蜘蛛俠:英雄歸來2 / 蜘蛛俠:遠離故鄉
片  名 Spider-Man: Far from Home
年  代 2019
產  地 美國
類  別 動作 / 科幻 / 冒險
語  言 英語
上映日期 2019-06-28(中國大陸) / 2019-07-02(美國)
IMDb評分  7.9/10 from 161425 users
IMDb鏈接  http://www.imdb.com/title/tt6320628
豆瓣評分 7.9/10 from 346059 users
豆瓣鏈接 https://movie.douban.com/subject/26931786/
片  長 127分鐘
導  演 喬·沃茨 Jon Watts
編  劇 克里斯·麥克納 Chris McKenna / 埃里克·薩默斯 Erik Sommers / 史蒂夫·迪特寇 Steve Ditko / 斯坦·李 Stan Lee
主  演 湯姆·赫蘭德 Tom Holland
       贊達亞 Zendaya
       杰克·吉倫哈爾 Jake Gyllenhaal
       寇碧·史莫德斯 Cobie Smulders
       塞繆爾·杰克遜 Samuel L. Jackson
       喬恩·費儒 Jon Favreau
       瑪麗莎·托梅 Marisa Tomei
       雅各布·巴特朗 Jacob Batalon
       安格瑞·賴斯 Angourie Rice
       馬丁·斯塔爾 Martin Starr
       瑞米·海依 Remy Hii
       紐曼·阿卡 Numan Acar
       托尼·雷沃羅利 Tony Revolori
       J·B·斯穆夫 J.B. Smoove
       赫米基·馬德拉 Hemky Madera
       戴維娜·西塔拉姆 Davina Sitaram
       約瑟夫·朗 Joseph Long
       露絲·霍洛克斯 Ruth Horrocks
       哈廷·帕特爾 Hiten Patel
       杰羅恩·凡·康寧斯伯格 Jeroen van Koningsbrugge
       Leonys Delossantos
       查利·蕾婭·埃斯奎爾 Charlie Rhea Esquér
       費斯·洛根 Faith Logan
       J·K·西蒙斯 J.K. Simmons
       小羅伯特·唐尼 Robert Downey Jr.


標  簽 漫威 | 超級英雄 | 美國 | 科幻 | 2019 | 成長 | 動作 | 漫畫改編

簡  介  

  在復仇者聯盟眾英雄的努力下,于滅霸無限手套事件中化作為灰燼的人們,重新回到了人世間,曾經消失的蜘蛛俠 彼得帕克 也回歸到了普通的生活之中,數月后,蜘蛛俠彼得帕克所在的學校舉行了歐洲旅游,帕克也在其中, 在歐州威尼斯旅行時,一個巨大無比的水怪襲擊了威尼斯,不敵敵人的蜘蛛俠幸得一位自稱神秘客的男子搭救才擊退敵人,之后 神盾局局長找上正在旅游的彼得帕克并要求其加入神盾局,并安排神秘客協助帕克,神秘客自稱來自其他宇宙,并告知一群名為元素眾的邪惡勢力已經入侵這個宇宙了,為了守護來之不易的和平,蜘蛛俠決定與神秘客聯手,然而在神秘客那頭罩之中,似乎隱藏著什么不為人知的真相……

獲獎情況  

  第5屆豆瓣電影年度榜單(2018)
  最值得期待的外語電影(提名)
  1. Video
  2. ID                                       : 1
  3. Format                                   : AVC
  4. Format/Info                              : Advanced Video Codec
  5. Format profile                           : <a href="/cdn-cgi/l/email-protection" class="__cf_email__" data-cfemail="4d05242a250d0179637c">[email protected]</a>
  6. Format settings                          : CABAC / 5 Ref Frames
  7. Format settings, CABAC                   : Yes
  8. Format settings, Reference frames        : 5 frames
  9. Codec ID                                 : V_MPEG4/ISO/AVC
  10. Duration                                 : 2 h 9 min
  11. Bit rate                                 : 9 376 kb/s
  12. Width                                    : 1 920 pixels
  13. Height                                   : 808 pixels
  14. Display aspect ratio                     : 2.40:1
  15. Frame rate mode                          : Constant
  16. Frame rate                               : 23.976 (24000/1001) FPS
  17. Color space                              : YUV
  18. Chroma subsampling                       : 4:2:0
  19. Bit depth                                : 8 bits
  20. Scan type                                : Progressive
  21. Bits/(Pixel*Frame)                       : 0.252
  22. Stream size                              : 8.47 GiB (78%)
  23. Title                                    : Spider-Man.Far.from.Home.2019.1080p.BluRay.x264.DTS-HD.MA.7.1-FGT
  24. Writing library                          : x264 core 158 r2984 3759fcb
  25. Encoding settings                        : cabac=1 / ref=5 / deblock=1:-3:-3 / analyse=0x3:0x133 / me=umh / subme=8 / psy=1 / psy_rd=1.00:0.00 / mixed_ref=1 / me_range=16 / chroma_me=1 / trellis=1 / 8x8dct=1 / cqm=0 / deadzone=21,11 / fast_pskip=0 / chroma_qp_offset=-2 / threads=25 / lookahead_threads=4 / sliced_threads=0 / nr=0 / decimate=1 / interlaced=0 / bluray_compat=0 / constrained_intra=0 / bframes=3 / b_pyramid=2 / b_adapt=1 / b_bias=0 / direct=3 / weightb=1 / open_gop=0 / weightp=2 / keyint=250 / keyint_min=23 / scenecut=40 / intra_refresh=0 / rc_lookahead=50 / rc=2pass / mbtree=1 / bitrate=9376 / ratetol=1.0 / qcomp=0.60 / qpmin=0 / qpmax=69 / qpstep=4 / cplxblur=20.0 / qblur=0.5 / vbv_maxrate=62500 / vbv_bufsize=78125 / nal_hrd=none / filler=0 / ip_ratio=1.40 / aq=1:1.00
  26. Language                                 : English
  27. Default                                  : Yes
  28. Forced                                   : No

  29. Audio
  30. ID                                       : 2
  31. Format                                   : DTS XLL
  32. Format/Info                              : Digital Theater Systems
  33. Commercial name                          : DTS-HD Master Audio
  34. Codec ID                                 : A_DTS
  35. Duration                                 : 2 h 9 min
  36. Bit rate mode                            : Variable
  37. Bit rate                                 : 2 594 kb/s
  38. Channel(s)                               : 8 channels
  39. Channel layout                           : C L R LFE Lb Rb Lss Rss
  40. Sampling rate                            : 48.0 kHz
  41. Frame rate                               : 93.750 FPS (512 SPF)
  42. Bit depth                                : 16 bits
  43. Compression mode                         : Lossless
  44. Stream size                              : 2.34 GiB (22%)
  45. Title                                    : Spider-Man.Far.from.Home.2019.1080p.BluRay.x264.DTS-HD.MA.7.1-FGT
  46. Language                                 : English
  47. Default                                  : Yes
  48. Forced                                   : No

  49. Text #1
  50. ID                                       : 3
  51. Format                                   : UTF-8
  52. Codec ID                                 : S_TEXT/UTF8
  53. Codec ID/Info                            : UTF-8 Plain Text
  54. Duration                                 : 2 h 7 min
  55. Bit rate                                 : 65 b/s
  56. Count of elements                        : 1725
  57. Stream size                              : 61.1 KiB (0%)
  58. Title                                    : English-SRT
  59. Language                                 : English
  60. Default                                  : Yes
  61. Forced                                   : No

  62. Text #2
  63. ID                                       : 4
  64. Format                                   : PGS
  65. Muxing mode                              : zlib
  66. Codec ID                                 : S_HDMV/PGS
  67. Codec ID/Info                            : Picture based subtitle format used on BDs/HD-DVDs
  68. Duration                                 : 2 h 8 min
  69. Bit rate                                 : 42.1 kb/s
  70. Count of elements                        : 3858
  71. Stream size                              : 38.6 MiB (0%)
  72. Title                                    : English-PGS
  73. Language                                 : English
  74. Default                                  : No
  75. Forced                                   : No

  76. Menu
  77. 00:00:00.000                             : en:00:00:00.000
  78. 00:09:35.033                             : en:00:09:35.033
  79. 00:16:06.716                             : en:00:16:06.716
  80. 00:25:18.475                             : en:00:25:18.475
  81. 00:35:26.499                             : en:00:35:26.499
  82. 00:41:57.014                             : en:00:41:57.014
  83. 00:49:50.029                             : en:00:49:50.029
  84. 00:57:09.509                             : en:00:57:09.509
  85. 01:04:50.637                             : en:01:04:50.637
  86. 01:15:57.219                             : en:01:15:57.219
  87. 01:22:49.089                             : en:01:22:49.089
  88. 01:29:25.193                             : en:01:29:25.193
  89. 01:36:43.256                             : en:01:36:43.256
  90. 01:44:47.364                             : en:01:44:47.364
  91. 01:52:17.397                             : en:01:52:17.397
  92. 01:57:45.433                             : en:01:57:45.433
復制代碼









分享到:  QQ好友和群QQ好友和群
收藏收藏2
開通VIP免費下載本站所有資源---點這里
新手必看:資源下載常見問題---點這里
回復

使用道具 舉報

 成長值: 6730

2#
發表于 2019-9-19 16:23:40 | 只看該作者
及時回個貼~~
開通VIP免費下載本站所有資源---點這里
新手必看:資源下載常見問題---點這里
回復 支持 反對

使用道具 舉報

3#
發表于 2019-9-19 17:08:51 | 只看該作者
多謝分享!
開通VIP免費下載本站所有資源---點這里
新手必看:資源下載常見問題---點這里
回復

使用道具 舉報

4#
發表于 2019-9-19 17:22:16 | 只看該作者
小白來支持一下  感謝分享
開通VIP免費下載本站所有資源---點這里
新手必看:資源下載常見問題---點這里
回復 支持 反對

使用道具 舉報

5#
發表于 2019-9-19 17:23:38 | 只看該作者

這個帖子不回對不起自己!我想我是一天也不能離開藍光電影網
開通VIP免費下載本站所有資源---點這里
新手必看:資源下載常見問題---點這里
回復 支持 反對

使用道具 舉報

6#
發表于 2019-9-19 17:39:58 | 只看該作者
感謝樓主分享
開通VIP免費下載本站所有資源---點這里
新手必看:資源下載常見問題---點這里
回復 支持 反對

使用道具 舉報

 成長值: 3035

7#
發表于 2019-9-19 18:50:41 | 只看該作者
這個資源大小就合適
開通VIP免費下載本站所有資源---點這里
新手必看:資源下載常見問題---點這里
回復 支持 反對

使用道具 舉報

8#
發表于 2019-9-19 18:57:16 | 只看該作者
感謝分享
開通VIP免費下載本站所有資源---點這里
新手必看:資源下載常見問題---點這里
回復

使用道具 舉報

 成長值: 715

9#
發表于 2019-9-19 19:32:05 | 只看該作者

樓主太厲害了!樓主,電影應該很好看我覺得藍光電影網真是個好地方!
開通VIP免費下載本站所有資源---點這里
新手必看:資源下載常見問題---點這里
回復 支持 反對

使用道具 舉報

 成長值: 715

10#
發表于 2019-9-19 19:36:25 | 只看該作者

這東西我收了!謝謝樓主!藍光電影網真好!
開通VIP免費下載本站所有資源---點這里
新手必看:資源下載常見問題---點這里
回復 支持 反對

使用道具 舉報

懶得打字嘛,點擊右側快捷回復 【右側內容,后臺自定義】
您需要登錄后才可以回帖 登錄 | 立即加入

本版積分規則

現在加入藍光電影網,注冊一個賬號

QQ| 手機版|小黑屋| 藍光電影網 |網站地圖

Copyright © 2015-2019 Comsenz Inc.  Template by 藍光電影論壇 All Rights Reserved.

Powered by 藍光電影網 X3.4

特別聲明:本站所有資源均由網上收集而來,版權歸原影音公司所有,如果侵犯了你的權益,請通知我們,我們會及時刪除侵權內容.

快速回復 返回頂部 返回列表
北京pk10历史开奖直播