找回密碼

藍光電影網

查看: 8967|回復: 232
打印 上一主題 下一主題

[奇幻] 阿拉丁/阿拉丁真人版 Aladdin.2019.1080p.BluRay.x264.DTS-HD.MA.7.1-FGT 13.26GB

  [復制鏈接]

 成長值: 1795

跳轉到指定樓層
1#
發表于 2019-8-28 17:28:23 | 只看該作者 |只看大圖 回帖獎勵 |倒序瀏覽 |閱讀模式


譯  名 阿拉丁 / 阿拉丁真人版
片  名 Aladdin
年  代 2019
產  地 美國
類  別 愛情 / 歌舞 / 奇幻 / 冒險
語  言 英語
上映日期 2019-05-24(美國/中國大陸)
IMDb評分  7.4/10 from 88756 users
IMDb鏈接  http://www.imdb.com/title/tt6139732
豆瓣評分 7.8/10 from 131777 users
豆瓣鏈接 https://movie.douban.com/subject/26891256/
片  長 128分鐘
導  演 蓋·里奇 Guy Ritchie
編  劇 蓋·里奇 Guy Ritchie / 約翰·奧古斯特 John August
主  演 梅納·瑪索德 Mena Massoud
       娜奧米·斯科特 Naomi Scott
       威爾·史密斯 Will Smith
       馬爾萬·肯扎里 Marwan Kenzari
       納維德·內加班 Navid Negahban
       紐曼·阿卡 Numan Acar
       艾倫·圖代克 Alan Tudyk
       比利·馬格努森 Billy Magnussen
       納西姆·帕杜雷德 Nasim Pedrad
       卡米爾·雷米澤斯基 Kamil Lemieszewski
       喬伊·安沙 Joey Ansah
       賈格·帕特爾 Jag Patel
       貝恩·科拉科 Bern Colla?o
       凱西·克萊爾 Cassie Clare
       威爾·布拉格羅夫 Will Blagrove
       哈廷·帕特爾 Hiten Patel
       阿米爾鮑特羅斯 Amir Boutrous
       埃里克·可可 Eric Coco
       弗蘭·塔格 Fran Targ
       阿瑪爾·阿達蒂亞 Amar Adatia
       喬丹·A·納什 Jordan A. Nash
       通恰伊·古奈什 Tuncay Gunes
       塞爾哈特·梅汀 Serhat Metin
       凱文·馬塔迪恩 Kevin Matadeen
       保利娜·博內瓦 Paulina Boneva
       塔希爾·布爾漢 Tahir Burhan
       亞當·柯林斯 Adam Collins


標  簽 迪士尼 | 童話 | 奇幻 | 魔幻 | 愛情 | 音樂 | 美國 | 2019

簡  介  

  在充滿異域風情的古代阿拉伯王國,善良的窮小子阿拉丁(莫納·馬蘇德 飾)和勇敢的茉莉公主(娜奧米·斯科特 飾)浪漫邂逅,在可以滿足主人三個愿望的神燈精靈(威爾·史密斯 飾)的幫助下,兩人踏上了一次尋找真愛和自我的魔幻冒險。
  1. Video
  2. ID                                       : 1
  3. Format                                   : AVC
  4. Format/Info                              : Advanced Video Codec
  5. Format profile                           : <a href="/cdn-cgi/l/email-protection" class="__cf_email__" data-cfemail="dc94b5bbb49c90e8f2ed">[email protected]</a>
  6. Format settings                          : CABAC / 5 Ref Frames
  7. Format settings, CABAC                   : Yes
  8. Format settings, Reference frames        : 5 frames
  9. Codec ID                                 : V_MPEG4/ISO/AVC
  10. Duration                                 : 2 h 7 min
  11. Bit rate                                 : 9 495 kb/s
  12. Width                                    : 1 920 pixels
  13. Height                                   : 808 pixels
  14. Display aspect ratio                     : 2.40:1
  15. Frame rate mode                          : Constant
  16. Frame rate                               : 23.976 (24000/1001) FPS
  17. Color space                              : YUV
  18. Chroma subsampling                       : 4:2:0
  19. Bit depth                                : 8 bits
  20. Scan type                                : Progressive
  21. Bits/(Pixel*Frame)                       : 0.255
  22. Stream size                              : 8.49 GiB (64%)
  23. Title                                    : Aladdin.2019.1080p.BluRay.x264.DTS-HD.MA.7.1-FGT
  24. Writing library                          : x264 core 158 r2984 3759fcb
  25. Encoding settings                        : cabac=1 / ref=5 / deblock=1:-3:-3 / analyse=0x3:0x113 / me=umh / subme=8 / psy=1 / psy_rd=1.00:0.00 / mixed_ref=1 / me_range=16 / chroma_me=1 / trellis=1 / 8x8dct=1 / cqm=0 / deadzone=21,11 / fast_pskip=1 / chroma_qp_offset=-2 / threads=25 / lookahead_threads=4 / sliced_threads=0 / nr=0 / decimate=1 / interlaced=0 / bluray_compat=0 / constrained_intra=0 / bframes=3 / b_pyramid=2 / b_adapt=1 / b_bias=0 / direct=3 / weightb=1 / open_gop=0 / weightp=2 / keyint=250 / keyint_min=23 / scenecut=40 / intra_refresh=0 / rc_lookahead=50 / rc=2pass / mbtree=1 / bitrate=9495 / ratetol=1.0 / qcomp=0.60 / qpmin=0 / qpmax=69 / qpstep=4 / cplxblur=20.0 / qblur=0.5 / ip_ratio=1.40 / aq=1:1.00
  26. Language                                 : English
  27. Default                                  : Yes
  28. Forced                                   : No

  29. Audio
  30. ID                                       : 2
  31. Format                                   : DTS XLL
  32. Format/Info                              : Digital Theater Systems
  33. Commercial name                          : DTS-HD Master Audio
  34. Codec ID                                 : A_DTS
  35. Duration                                 : 2 h 7 min
  36. Bit rate mode                            : Variable
  37. Bit rate                                 : 5 316 kb/s
  38. Channel(s)                               : 8 channels
  39. Channel layout                           : C L R LFE Lb Rb Lss Rss
  40. Sampling rate                            : 48.0 kHz
  41. Frame rate                               : 93.750 FPS (512 SPF)
  42. Bit depth                                : 24 bits
  43. Compression mode                         : Lossless
  44. Stream size                              : 4.75 GiB (36%)
  45. Title                                    : Aladdin.2019.1080p.BluRay.x264.DTS-HD.MA.7.1-FGT
  46. Language                                 : English
  47. Default                                  : Yes
  48. Forced                                   : No

  49. Text #1
  50. ID                                       : 3
  51. Format                                   : UTF-8
  52. Codec ID                                 : S_TEXT/UTF8
  53. Codec ID/Info                            : UTF-8 Plain Text
  54. Duration                                 : 2 h 6 min
  55. Bit rate                                 : 63 b/s
  56. Count of elements                        : 2111
  57. Stream size                              : 59.1 KiB (0%)
  58. Title                                    : English-SRT
  59. Language                                 : English
  60. Default                                  : Yes
  61. Forced                                   : No

  62. Text #2
  63. ID                                       : 4
  64. Format                                   : PGS
  65. Muxing mode                              : zlib
  66. Codec ID                                 : S_HDMV/PGS
  67. Codec ID/Info                            : Picture based subtitle format used on BDs/HD-DVDs
  68. Duration                                 : 2 h 7 min
  69. Bit rate                                 : 47.1 kb/s
  70. Count of elements                        : 4858
  71. Stream size                              : 42.8 MiB (0%)
  72. Title                                    : English-PGS
  73. Language                                 : English
  74. Default                                  : No
  75. Forced                                   : No
復制代碼









分享到:  QQ好友和群QQ好友和群
收藏收藏1
開通VIP免費下載本站所有資源---點這里
新手必看:資源下載常見問題---點這里
回復

使用道具 舉報

2#
發表于 2019-8-28 18:07:15 | 只看該作者
你把密碼保護門后面還沒好嗎
開通VIP免費下載本站所有資源---點這里
新手必看:資源下載常見問題---點這里
回復 支持 反對

使用道具 舉報

3#
發表于 2019-8-28 20:42:55 | 只看該作者

這東西我收了!謝謝樓主!藍光電影網真好!
開通VIP免費下載本站所有資源---點這里
新手必看:資源下載常見問題---點這里
回復 支持 反對

使用道具 舉報

4#
發表于 2019-8-28 21:48:12 | 只看該作者
謝謝樓主分享新資源
開通VIP免費下載本站所有資源---點這里
新手必看:資源下載常見問題---點這里
回復 支持 反對

使用道具 舉報

5#
發表于 2019-8-28 23:34:33 | 只看該作者
百看不厭
開通VIP免費下載本站所有資源---點這里
新手必看:資源下載常見問題---點這里
回復

使用道具 舉報

6#
發表于 2019-8-29 10:32:01 | 只看該作者

既然你誠信誠意的推薦了,那我就勉為其難的看看吧!藍光電影網不走平凡路。
開通VIP免費下載本站所有資源---點這里
新手必看:資源下載常見問題---點這里
回復 支持 反對

使用道具 舉報

7#
發表于 2019-8-29 11:28:21 | 只看該作者
樓主發貼辛苦了,謝謝樓主分享!我覺得藍光電影網是注冊對了!
開通VIP免費下載本站所有資源---點這里
新手必看:資源下載常見問題---點這里
回復 支持 反對

使用道具 舉報

8#
發表于 2019-8-29 13:52:56 | 只看該作者

這東西我收了!謝謝樓主!藍光電影網真好!
開通VIP免費下載本站所有資源---點這里
新手必看:資源下載常見問題---點這里
回復 支持 反對

使用道具 舉報

9#
發表于 2019-8-29 14:39:04 | 只看該作者
這東西我收了!謝謝樓主!藍光電影網真好!
開通VIP免費下載本站所有資源---點這里
新手必看:資源下載常見問題---點這里
回復 支持 反對

使用道具 舉報

10#
發表于 2019-8-29 15:03:15 | 只看該作者
謝謝樓主分享新資源
開通VIP免費下載本站所有資源---點這里
新手必看:資源下載常見問題---點這里
回復 支持 反對

使用道具 舉報

懶得打字嘛,點擊右側快捷回復 【右側內容,后臺自定義】
您需要登錄后才可以回帖 登錄 | 立即加入

本版積分規則

現在加入藍光電影網,注冊一個賬號

QQ| 手機版|小黑屋| 藍光電影網 |網站地圖

Copyright © 2015-2019 Comsenz Inc.  Template by 藍光電影論壇 All Rights Reserved.

Powered by 藍光電影網 X3.4

特別聲明:本站所有資源均由網上收集而來,版權歸原影音公司所有,如果侵犯了你的權益,請通知我們,我們會及時刪除侵權內容.

快速回復 返回頂部 返回列表
北京pk10历史开奖直播