找回密碼

藍光電影網

查看: 5273|回復: 170
打印 上一主題 下一主題

[2160p-WEB] 阿麗塔:戰斗天使/艾莉塔:戰斗天使 Alita.Battle.Angel.2019.INTERNAL.HDR.2160p.WEB.H265-DEFLATE 21.54GB

  [復制鏈接]

 成長值: 1795

跳轉到指定樓層
1#
發表于 2019-7-10 00:03:43 | 只看該作者 |只看大圖 回帖獎勵 |倒序瀏覽 |閱讀模式


譯  名 阿麗塔:戰役天使 / 艾莉塔:戰役天使(臺) / 銃夢 / 銃夢:戰役天使(港)
片  名 Alita: Battle Angel
年  代 2019
產  地 美國 / 加拿大 / 阿根廷
類  別 行動 / 科幻 / 冒險
語  言 英語 / 西班牙語
上映日期 2019-02-05(臺灣) / 2019-02-14(美國) / 2019-02-22(中國大陸)
IMDb評分7.5/10 from 102771 users
IMDb鏈接http://www.imdb.com/title/tt0437086
豆瓣評分 7.6/10 from 343930 users
豆瓣鏈接 https://movie.douban.com/subject/1652592/
片  長 122分鐘
導  演 羅伯特·羅德里格茲 Robert Rodriguez
編  劇 詹姆斯·卡梅隆 James Cameron / 萊塔·卡羅格里迪斯 Laeta Kalogridis / 木城幸人 Yukito Kishiro
主  演 羅莎·薩拉查 Rosa Salazar
      克里斯托弗·沃爾茲 Christoph Waltz
      基恩·約翰遜 Keean Johnson
      艾德·斯克林 Ed Skrein
      馬赫沙拉·阿里 Mahershala Ali
      詹妮弗·康納利 Jennifer Connelly
      杰基·厄爾·哈利 Jackie Earle Haley
      陳東蘭 Lana Condor
      小豪爾赫·蘭登伯格 Jorge Lendeborg Jr.
      艾莎·岡薩雷斯 Eiza González
      卡斯帕·凡·迪恩 Casper Van Dien
      米歇爾·羅德里格茲 Michelle Rodriguez
      愛德華·諾頓 Edward Norton
      杰夫·法赫 Jeff Fahey
      山姆·麥地那 Sam Medina
      德里克·梅耶斯 Derek Mears
      艾麗·拉蒙特 Elle LaMont
      豪爾赫·A·希門尼斯 Jorge A. Jimenez
      馬克·扎羅 Marko Zaror
      比利·布萊爾 Billy Blair
      倫納德·吳 Leonard Wu
      特里斯坦·里格斯 Tristan Riggs
      邁克爾·洛夫·托利弗 Michael Love Toliver
      金 King
      達塞爾·丹妮爾 Darcel Danielle
      Mark A. White


標  簽 科幻 | 機械人 | 行動 | 漫畫改編 | 美國 | 賽博朋克 | 2019 | 動畫

簡  介

  故事發生在悠遠的26世紀,外科醫生依德(克里斯托弗·瓦爾茲 Christoph Waltz 飾)在渣滓場里撿到了只剩下頭部的機械少女將她帶回家中,給她裝上了原本為自己已故的女兒所預備的義體,并取名阿麗塔(羅莎·薩拉扎爾 Rosa Salazar 飾)。蘇醒后的阿麗塔對這個五彩斑斕但卻暴力而又殘暴的天下發生了稠密的愛好,在結識了青年雨果(基恩·約翰遜 Keean Johnson 飾)后,阿麗塔起頭打仗名為靈活球的活動,并在角逐中展現出了驚人的肉搏天賦。
在廢鐵城居民們的頭頂,漂泊著龐大的浮空城市撒冷,廢鐵城居民們的一切勞作和支出,都是為了給撒冷供給繼續運作的燃料。在大財閥維克特(馬赫沙拉·阿里 Mahershala Ali 飾)所設立的靈活球角逐中,終極獲得冠軍的人可以獲得前往撒冷生活的資歷,阿麗塔決議操縱自己的肉搏天賦加入角逐,卻被卷入了一個龐大的詭計當中。

獲獎情況

  第5屆豆瓣電影年度榜單(2018)
  最值得期待的外語電影(提名)

  第4屆豆瓣電影年度榜單(2017)
  最值得期待的外語電影(提名)


  1. Video
  2. ID : 1
  3. Format : HEVC
  4. Format/Info : High Efficiency Video Coding
  5. Commercial name : HDR10
  6. Format profile : Main [email protected]@High
  7. Codec ID : V_MPEGH/ISO/HEVC
  8. Duration : 2 h 1 min
  9. Bit rate : 24.0 Mb/s
  10. Width : 3 840 pixels
  11. Height : 1 608 pixels
  12. Original height : 2 160 pixels
  13. Display aspect ratio : 16:9
  14. Frame rate mode : Constant
  15. Frame rate : 23.976 (24000/1001) FPS
  16. Color space : YUV
  17. Chroma subsampling : 4:2:0 (Type 2)
  18. Bit depth : 10 bits
  19. Bits/(Pixel*Frame) : 0.162
  20. Stream size : 20.4 GiB (96%)
  21. Language : English
  22. Default : Yes
  23. Forced : No
  24. Color range : Limited
  25. Color primaries : BT.2020
  26. Transfer characteristics : PQ
  27. Matrix coefficients : BT.2020 non-constant
  28. Mastering display color primaries : Display P3
  29. Mastering display luminance : min: 0.0050 cd/m2, max: 1000 cd/m2

  30. Audio
  31. ID : 2
  32. Format : E-AC-3 JOC
  33. Format/Info : Enhanced AC-3 with Joint Object Coding
  34. Commercial name : Dolby Digital Plus with Dolby Atmos
  35. Codec ID : A_EAC3
  36. Duration : 2 h 1 min
  37. Bit rate mode : Constant
  38. Bit rate : 576 kb/s
  39. Channel(s) : 6 channels
  40. Channel layout : L R C LFE Ls Rs
  41. Sampling rate : 48.0 kHz
  42. Frame rate : 31.250 FPS (1536 SPF)
  43. Compression mode : Lossy
  44. Delay relative to video : 83 ms
  45. Stream size : 502 MiB (2%)
  46. Language : English
  47. Service kind : Complete Main
  48. Default : Yes
  49. Forced : No
  50. Complexity index : 16
  51. Number of dynamic objects : 15
  52. Bed channel count : 1 channel
  53. Bed channel configuration : LFE

  54. Text #1
  55. ID : 3
  56. Format : UTF-8
  57. Codec ID : S_TEXT/UTF8
  58. Codec ID/Info : UTF-8 Plain Text
  59. Title : English
  60. Language : English
  61. Default : No
  62. Forced : No

  63. Text #2
  64. ID : 4
  65. Format : UTF-8
  66. Codec ID : S_TEXT/UTF8
  67. Codec ID/Info : UTF-8 Plain Text
  68. Title : English (SDH)
  69. Language : English
  70. Default : No
  71. Forced : No

  72. Text #3
  73. ID : 5
  74. Format : UTF-8
  75. Codec ID : S_TEXT/UTF8
  76. Codec ID/Info : UTF-8 Plain Text
  77. Title : Spanish
  78. Language : Spanish
  79. Default : No
  80. Forced : No

  81. Menu
  82. 00:00:01.000 : en:Chapter 01
  83. 00:03:29.000 : en:Chapter 02
  84. 00:07:52.000 : en:Chapter 03
  85. 00:10:08.000 : en:Chapter 04
  86. 00:13:07.000 : en:Chapter 05
  87. 00:15:07.000 : en:Chapter 06
  88. 00:18:05.000 : en:Chapter 07
  89. 00:22:59.000 : en:Chapter 08
  90. 00:25:36.000 : en:Chapter 09
  91. 00:31:41.000 : en:Chapter 10
  92. 00:33:30.000 : en:Chapter 11
  93. 00:36:33.000 : en:Chapter 12
  94. 00:38:31.000 : en:Chapter 13
  95. 00:42:06.000 : en:Chapter 14
  96. 00:45:59.000 : en:Chapter 15
  97. 00:48:32.000 : en:Chapter 16
  98. 00:52:58.000 : en:Chapter 17
  99. 00:55:15.000 : en:Chapter 18
  100. 01:00:40.000 : en:Chapter 19
  101. 01:02:57.000 : en:Chapter 20
  102. 01:05:17.000 : en:Chapter 21
  103. 01:10:51.000 : en:Chapter 22
  104. 01:13:38.000 : en:Chapter 23
  105. 01:16:36.000 : en:Chapter 24
  106. 01:18:53.000 : en:Chapter 25
  107. 01:22:49.000 : en:Chapter 26
  108. 01:24:56.000 : en:Chapter 27
  109. 01:28:26.000 : en:Chapter 28
  110. 01:33:19.000 : en:Chapter 29
  111. 01:36:09.000 : en:Chapter 30
  112. 01:41:55.000 : en:Chapter 31
  113. 01:45:24.000 : en:Chapter 32
  114. 01:48:17.000 : en:Chapter 33
  115. 01:51:44.000 : en:Chapter 34
  116. 01:54:44.000 : en:Chapter 35
  117. 01:56:52.000 : en:Chapter 36
復制代碼











分享到:  QQ好友和群QQ好友和群
收藏收藏2
開通VIP免費下載本站所有資源---點這里
新手必看:資源下載常見問題---點這里
回復

使用道具 舉報

推薦
發表于 2019-7-10 10:13:16 | 只看該作者

樓主太厲害了!樓主,電影應該很好看我覺得藍光電影網真是個好地方!
開通VIP免費下載本站所有資源---點這里
新手必看:資源下載常見問題---點這里
回復 支持 1 反對 0

使用道具 舉報

2#
發表于 2019-7-10 01:11:00 | 只看該作者
樓主發貼辛苦了,謝謝樓主分享!我覺得藍光電影網是注冊對了!
開通VIP免費下載本站所有資源---點這里
新手必看:資源下載常見問題---點這里
回復 支持 反對

使用道具 舉報

3#
發表于 2019-7-10 02:23:53 | 只看該作者
我來干一層樓了咯咯咯咯
開通VIP免費下載本站所有資源---點這里
新手必看:資源下載常見問題---點這里
回復 支持 反對

使用道具 舉報

4#
發表于 2019-7-10 06:53:44 | 只看該作者

這個帖子不回對不起自己!我想我是一天也不能離開藍光電影網
開通VIP免費下載本站所有資源---點這里
新手必看:資源下載常見問題---點這里
回復 支持 反對

使用道具 舉報

5#
發表于 2019-7-10 07:01:14 | 只看該作者
樓主發貼辛苦了,謝謝樓主分享!我覺得藍光電影網是注冊對了!
開通VIP免費下載本站所有資源---點這里
新手必看:資源下載常見問題---點這里
回復 支持 反對

使用道具 舉報

已拋錨 成長值: 240

6#
發表于 2019-7-10 07:39:16 | 只看該作者
厲害那,謝謝分享
開通VIP免費下載本站所有資源---點這里
新手必看:資源下載常見問題---點這里
回復 支持 反對

使用道具 舉報

7#
發表于 2019-7-10 08:06:14 | 只看該作者

樓主太厲害了!樓主,電影應該很好看我覺得藍光電影網真是個好地方!
開通VIP免費下載本站所有資源---點這里
新手必看:資源下載常見問題---點這里
回復 支持 反對

使用道具 舉報

 成長值: 1045

8#
發表于 2019-7-10 09:12:55 | 只看該作者

樓主太厲害了!樓主,電影應該很好看我覺得藍光電影網真是個好地方!
開通VIP免費下載本站所有資源---點這里
新手必看:資源下載常見問題---點這里
回復 支持 反對

使用道具 舉報

9#
發表于 2019-7-10 09:37:42 | 只看該作者

樓主太厲害了!樓主,電影應該很好看我覺得藍光電影網真是個好地方!
開通VIP免費下載本站所有資源---點這里
新手必看:資源下載常見問題---點這里
回復 支持 反對

使用道具 舉報

懶得打字嘛,點擊右側快捷回復 【右側內容,后臺自定義】
您需要登錄后才可以回帖 登錄 | 立即加入

本版積分規則

現在加入藍光電影網,注冊一個賬號

QQ| 手機版|小黑屋| 藍光電影網 |網站地圖

Copyright © 2015-2019 Comsenz Inc.  Template by 藍光電影論壇 All Rights Reserved.

Powered by 藍光電影網 X3.4

特別聲明:本站所有資源均由網上收集而來,版權歸原影音公司所有,如果侵犯了你的權益,請通知我們,我們會及時刪除侵權內容.

快速回復 返回頂部 返回列表
北京pk10历史开奖直播